Тачки 2 в 3Д / Cars 2 3D (Джон Лассетер, Брэд Льюис / John Lasseter, Brad Lewis) [2011, Мультфильм, Комедия, Приключения, Семейный, BDrip-AVC] Half OverUnder / Вертикальная анаморфная стереопара

 
Автор Сообщение

BOSS ®

Пол:

Стаж: 2 года 2 месяца

Сообщений: 3751

Откуда: ODESSA



Награды: 20 (Подробнее)

Top Seeder 3 (Количество: 1) Top Keeper 4 (Количество: 1) За внесенный вклад в развитие сайта (Количество: 1)
Торрент-статистика

Создавать темы 07-Окт-2015 19:41

[Цитировать]

-Тачки 2
Cars 2

(Русскоязычный видеоряд)
-Год выпуска: 2011
Страна: США (Walt Disney Pictures, Pixar Animation Studios)
Жанр: Мультфильм, Комедия, Приключения, Семейный
Продолжительность: 1:47:02
Перевод: Профессиональный дублированный
Режиссер: Джон Лассетер, Брэд Льюис / John Lasseter, Brad Lewis-Роли озвучивали (дублировали):
- ............. ............. -Молния МакКуинн - Owen Wilson (Дмитрий Харатьян)
Мэтр - Larry "The Cable Guy" (Сергей Кузнецов)
Флинн МакМиссайл - Michael Caine (Леонид Каневский)
Холли Шифтвелл - Emily Mortimer (Жанна Фриске)
Сэр Майлс Экслрод - Eddie Izzard (Леонид Ярмольник)
Франческо Бернулли - John Turturro (Сергей Дьячков)
Брент Мустангбургер - Brent Musburger (Александр Балакирев)
Грем - Joe Mantegna (Михаил Трясоруков)
Профессор Ц - Thomas Kretschmann (Юрий Герцман)
Эйсер - Peter Jacobson
Салли - Bonnie Hunt (Алика Смехова)
Дэвид Хоббскап - David Hobbs (Михаил "Захар" Захаров)
Королева - Vanessa Redgrave (Елена Терновая, Татьяна Гордеева)
Рэймон - Cheech Marin (Андрей Машков)
Льюис Хэмилтон - Lewis Hamilton (Александр Лушин)
Фернандо Алонсо - Fernando Alonso
Виталий Петров - Виталий Петров
Себастьян Шнелль - Sebastian Vettel
Жак Вильнёв - Jacques Villeneuve
-Описание: Молния МакКуин и его друг Мэтр отправляются в международное путешествие — когда МакКуин получает шанс участвовать в соревнованиях для самых быстрых машин в мире, Мировом Гран-При. Этапы этих престижных гонок заведут друзей в Токио, на набережные Парижа, на побережье Италии, и на улицы туманного Лондона.

Знаете ли вы, что...:

  • Когда Мэтр, Фин МакМиссл и Холли Делюкс были во Франции, можно было заметить ресторан «Гюсто» (отсылка к другому мультфильму Pixar — «Рататуй»). Только сам Гюсто был в авто-прототипе (он очень похож на Мэтра).
  • Среди подручных Профессора Ц можно заметить группу автомобилей ЗАЗ 968, а точнее его экспортный вариант Jalta 968.
  • Джон Лассетер задумал историю для сиквела ещё в 2006 году, когда он был в Европе, продвигая первый мультфильм.
  • На гонке в Радиатор-Спрингс можно заметить среди болельщиков автомобиль Планета пицца (отсылка к фильму История Игрушек). Данный автомобиль присутствует во всех фильмах производства Pixar.

    Следующий факт содержит спойлер!

    Из уважения к Полу Ньюману, который умер в 2008 году, персонаж Дока Хадсона не включен во второй фильм. Чтобы Док Хадсон был упомянут в фильме, в его честь решили назвать кубок Большого Поршня. Также сообщается, что Док умер.

Техн. детали съёмки

  • Формат изображения: 2.35 : 1
  • Формат копии: 35 mm (anamorphic) (Kodak Vision Premier 2393)
    70 mm (horizontal) (IMAX DMR blow-up) (dual-strip 3-D) (Kodak Vision Premier 2393)
    D-Cinema (also 3-D version)
  • Формат съёмок: Digital
  • Изображение: цветное
  • Язык: английский, французский, японский, итальянский
Премьера: 18 июня 2011 (23 июня 2011)
Релиз на Blu-Ray (DVD) (Россия): 29 ноября 2011 (1 ноября 2011)
Бюджет: $200 000 000
Кассовые сборы: $559 852 396

. .
-Качество: BDRip (by Ash61)
Контейнер: MKV
Формат 3D: Half OverUnder / Вертикальная анаморфная стереопара
Порядок ракурсов: левый ракурс первый
Видео кодек: x264
Аудио кодек: AC3-Видео: AVC / 23,976 fps / 1920х1080p / ~7.9 Mbps
Аудио:
#1 - Русский / AC3 / 48 KHz / 5.1 ch / 640 Kbps (Дубляж - BD 3D CEE)
#2 - Украинский / AC3 / 48 KHz / 5.1 ch / 640 Kbps (Дубляж - BD 3D CEE)
#3 - Английский / AC3 / 48 KHz / 5.1 ch / 640 Kbps (Original - BD 3D CEE)
Субтитры: (SRT)
Внешние (UTF-8):
#1 - Русские Форсированные (BD 3D CEE) (включены по умолчанию)
#2 - Русские Полные (BD 3D CEE)
#3 - Русские Полные (voronine)
#4 - Украинские Форсированные (BD 3D CEE)
#5 - Украинские Полные (BD 3D CEE)
#6 - English Forced (BD 3D CEE)
#7 - English Full (BD 3D CEE)
Вшитые (softsub):
#1 - Русские Форсированные (BD 3D CEE) (включены по умолчанию)
#2 - Украинские Форсированные (BD 3D CEE)
#3 - English Forced (BD 3D CEE)

MediaInfo

General
Unique ID : 181205813768407937665516113753249540772 (0x8852F8647D9188B492FEAF653F85EAA4)
Complete name : E:\Cars2(2011)3D-halfOU(Ash61)Video-Rus\Cars2(2011)3D-halfOU(Ash61)Video-Rus.mkv
Format : Matroska
Format version : Version 2
File size : 7.48 GiB
Duration : 1h 47mn
Overall bit rate : 10.0 Mbps
Movie name : Тачки 2 / Cars 2 (2011) 3D
Encoded date : UTC 2014-03-25 16:36:03
Writing application : mkvmerge v5.8.0 ('No Sleep / Pillow') built on Sep 2 2012 15:37:04
Writing library : libebml v1.2.3 + libmatroska v1.3.0
Video
ID : 1
Format : AVC
Format/Info : Advanced Video Codec
Format profile : High@L4.1
Format settings, CABAC : Yes
Format settings, ReFrames : 4 frames
Codec ID : V_MPEG4/ISO/AVC
Duration : 1h 47mn
Bit rate : 7 887 Kbps
Width : 1 920 pixels
Height : 1 080 pixels
Display aspect ratio : 16:9
Frame rate mode : Constant
Frame rate : 23.976 fps
Color space : YUV
Chroma subsampling : 4:2:0
Bit depth : 8 bits
Scan type : Progressive
Bits/(Pixel*Frame) : 0.159
Stream size : 5.90 GiB (79%)
Title : BDRip by Ash61 (Русскоязычный видеоряд)
Writing library : x264 core 129 r2245 bc13772
Encoding settings : cabac=1 / ref=4 / deblock=1:-3:-3 / analyse=0x3:0x113 / me=umh / subme=10 / psy=1 / psy_rd=1.00:0.15 / mixed_ref=1 / me_range=32 / chroma_me=1 / trellis=2 / 8x8dct=1 / cqm=0 / deadzone=21,11 / fast_pskip=1 / chroma_qp_offset=-3 / threads=12 / lookahead_threads=2 / sliced_threads=0 / nr=0 / decimate=1 / interlaced=0 / bluray_compat=0 / constrained_intra=0 / bframes=9 / b_pyramid=2 / b_adapt=2 / b_bias=0 / direct=3 / weightb=1 / open_gop=0 / weightp=2 / keyint=250 / keyint_min=23 / scenecut=40 / intra_refresh=0 / rc_lookahead=60 / rc=crf / mbtree=1 / crf=16.5 / qcomp=0.70 / qpmin=0 / qpmax=69 / qpstep=4 / vbv_maxrate=40000 / vbv_bufsize=30000 / crf_max=0.0 / nal_hrd=none / frame-packing=4 / ip_ratio=1.40 / aq=1:0.70
Language : English
Default : Yes
Forced : No
Audio #1
ID : 2
Format : AC-3
Format/Info : Audio Coding 3
Mode extension : CM (complete main)
Format settings, Endianness : Big
Codec ID : A_AC3
Duration : 1h 47mn
Bit rate mode : Constant
Bit rate : 640 Kbps
Channel(s) : 6 channels
Channel positions : Front: L C R, Side: L R, LFE
Sampling rate : 48.0 KHz
Bit depth : 16 bits
Compression mode : Lossy
Stream size : 490 MiB (6%)
Title : Дубляж - BD 3D CEE
Language : Russian
Default : Yes
Forced : No
Audio #2
ID : 3
Format : AC-3
Format/Info : Audio Coding 3
Mode extension : CM (complete main)
Format settings, Endianness : Big
Codec ID : A_AC3
Duration : 1h 47mn
Bit rate mode : Constant
Bit rate : 640 Kbps
Channel(s) : 6 channels
Channel positions : Front: L C R, Side: L R, LFE
Sampling rate : 48.0 KHz
Bit depth : 16 bits
Compression mode : Lossy
Stream size : 490 MiB (6%)
Title : Дубляж - BD 3D CEE
Language : Ukrainian
Default : No
Forced : No
Audio #3
ID : 4
Format : AC-3
Format/Info : Audio Coding 3
Mode extension : CM (complete main)
Format settings, Endianness : Big
Codec ID : A_AC3
Duration : 1h 47mn
Bit rate mode : Constant
Bit rate : 640 Kbps
Channel(s) : 6 channels
Channel positions : Front: L C R, Side: L R, LFE
Sampling rate : 48.0 KHz
Bit depth : 16 bits
Compression mode : Lossy
Stream size : 490 MiB (6%)
Title : Original - BD 3D CEE
Language : English
Default : No
Forced : No
Text #1
ID : 5
Format : UTF-8
Codec ID : S_TEXT/UTF8
Codec ID/Info : UTF-8 Plain Text
Title : Форсированные - BD 3D CEE (2 фразы)
Language : Russian
Default : Yes
Forced : No
Text #2
ID : 6
Format : UTF-8
Codec ID : S_TEXT/UTF8
Codec ID/Info : UTF-8 Plain Text
Title : Форсированные - BD 3D CEE
Language : Ukrainian
Default : No
Forced : No
Text #3
ID : 7
Format : UTF-8
Codec ID : S_TEXT/UTF8
Codec ID/Info : UTF-8 Plain Text
Title : Forced - BD 3D CEE
Language : English
Default : No
Forced : No
Menu
00:00:00.000 : :1. Communique
00:01:29.171 : :2. Meet Finn
00:04:47.577 : :3. Escape
00:07:43.670 : :4. Radiator Springs
00:12:07.893 : :5. Mater Calls In
00:17:48.942 : :6. Travel Montage
00:20:01.324 : :7. Party
00:22:51.536 : :8. The Meet
00:26:34.634 : :9. Bathroom
00:30:30.161 : :10. Lemons' Lair
00:32:41.959 : :11. Japan Broadcast
00:34:13.509 : :12. First Lap
00:37:15.565 : :13. Mater's Date
00:40:44.148 : :14. Victory Lane
00:42:53.152 : :15. Airpot
00:46:18.567 : :16. Mater's Note
00:46:57.938 : :17. Agent Mater
00:49:48.525 : :18. Paris
00:53:56.398 : :19. Holley's Big Idea
00:54:57.251 : :20. Uncle Topolino
00:57:36.202 : :21. Spy Train
00:59:27.730 : :22. Porto Corsa
01:02:16.940 : :23. Infiltrating The Casino
01:05:56.284 : :24. Lemon-heads
01:12:31.762 : :25. Mater Warns McQueen
01:14:05.899 : :26. Mater's Flashback
01:15:24.185 : :27. Big Bentley
01:21:12.992 : :28. The Bomb
01:23:22.246 : :29. London Chase
01:29:06.923 : :30. Buckingham Palace
01:31:48.126 : :31. Knighting Ceremony
01:32:41.220 : :32. Epilogue
01:38:18.600 : :33. End Credits

Для оценки 3Д - Анимированные скрины














[Профиль] [ЛС]
Показать сообщения:    

Текущее время: Сегодня 18:52

Часовой пояс: GMT



Вы не можете начинать темы
Вы не можете отвечать на сообщения
Вы не можете редактировать свои сообщения
Вы не можете удалять свои сообщения
Вы не можете голосовать в опросах
Вы не можете прикреплять файлы к сообщениям
Вы не можете скачивать файлы