Тачка №19 / Vehicle 19 (Мукунда Майкл Дьюил / Mukunda Michael Dewil) [2013, США, ЮАР, боевик, триллер, криминал, BDRip 1080p] Dub + Original (Eng) + Subs (Rus, Eng)

 
Автор Сообщение

reversefile ®

Пол:

Стаж: 4 года 5 месяцев

Сообщений: 842

Откуда: ReverseFile.org



Награды: Нет

Торрент-статистика

Создавать темы 11-Авг-2014 10:40

[Цитировать]

Тачка №19Vehicle 19«Он выбрал не ту тачку. Они нарвались не на того парня»- Страна: США, ЮАР
Жанр: боевик, триллер, криминал, драма
Год выпуска: 2013
Продолжительность: 01:25:10-Перевод: Профессиональный (полное дублирование) (BD RUS)
Оригинальная аудиодорожка: английский
Субтитры: русские, английские
Режиссер: Мукунда Майкл Дьюил / Mukunda Michael Dewil
В ролях: Пол Уокер, Наима МакЛин, Ги Де Виллерс, Лэйла Хайдариан, Тшепо Масеко, Андриан Мазив, Велиль Нзуза, Мангалисо Нгема, Эрнест Кубайи, Элиз Ван Никерк, Сизо Моцоко, Сививе Мазибуко-Описание: Что делать, если из багажника арендованной в незнакомом городе тачки в салон вываливается связанная девушка? Сдать бедолагу в ближайший полицейский участок? Спасибо, Кэп, но не всё так просто! Эта девушка - важный свидетель в большом заговоре, и её уже приговорили к смерти... На хвосте висят все копы города, выход один - вдавить педаль газа в пол и считать дырки от пуль и разбитые полицейские машины! Гонки на выживание начинаются!-


MPAA: R - Лицам до 17 лет обязательно присутствие взрослого-

Доп. Информация

Сценарий: Мукунда Майкл Дьюил / Mukunda Michael Dewil
Продюсер: Райан Хайдариан / Ryan Haidarian, Питер Сафран / Peter Safran, Уэйн Марк Годфри / Wayne Marc Godfrey, Гари Кинг / Gary King, Эдди Мбало / Eddie Mbalo
Оператор: Майлз Гудолл / Miles Goodall
Композитор: Дэниэл Матти / Daniel Matthee, Джеймс Маттес / James Matthes
Мировая премьера: 7 февраля 2013
Релиз на DVD: 13 июня 2013, «CP Дистрибуция»
Релиз на Blu-ray: 13 июня 2013, «CP Дистрибуция»
-Качество: BDRip 1080p (Исходник Vehicle 19 2013 1080p Blu-ray AVC DTS-HD MA 5 1-HDWinG)
Контейнер: MKV
Видео: AVC, 1920x800 (2.40:1), 10428 kbps, 23,976 fps, 0,283 bpp
Аудио №1: русский / DTS / 5.1 / 48 kHz / 1510 kbps / 16 bit || Дубляж
Аудио №2: английский / DTS / 5.1 / 48 kHz / 1510 kbps / 24 bit
Формат субтитров: softsub (SRT)
Навигация по главам: есть-

Media Info

Общее
Уникальный идентификатор : 182650321777517380196173989477956039818 (0x89692C22D2366FE99D9F9A054F49B48A)
Полное имя : G:\Vehicle.19.2013.BDRip.1080p.mkv
Формат : Matroska
Версия формата : Version 2
Размер файла : 8,17 Гбайт
Продолжительность : 1 ч. 25 м.
Общий поток : 13,7 Мбит/сек
Дата кодирования : UTC 2013-06-20 05:17:19
Программа кодирования : mkvmerge v5.8.0 ('No Sleep / Pillow') built on Sep 2 2012 15:37:04
Библиотека кодирования : libebml v1.2.3 + libmatroska v1.3.0
Видео
Идентификатор : 1
Формат : AVC
Формат/Информация : Advanced Video Codec
Профиль формата : High@L4.1
Параметр CABAC формата : Да
Параметр ReFrames формата : 4 кадра
Идентификатор кодека : V_MPEG4/ISO/AVC
Продолжительность : 1 ч. 25 м.
Битрейт : 10,4 Мбит/сек
Ширина : 1920 пикселей
Высота : 800 пикселей
Соотношение сторон : 2,40:1
Режим частоты кадров : Постоянный
Частота кадров : 23,976 кадра/сек
Цветовое пространство : YUV
Субдискретизация насыщенности : 4:2:0
Битовая глубина : 8 бит
Тип развёртки : Прогрессивная
Бит/(Пиксели*Кадры) : 0.283
Размер потока : 6,21 Гбайт (76%)
Библиотека кодирования : x264 core 130 r2273 b3065e6
Настройки программы : cabac=1 / ref=4 / deblock=1:-1:-1 / analyse=0x3:0x113 / me=umh / subme=10 / psy=1 / psy_rd=1.00:0.15 / mixed_ref=1 / me_range=48 / chroma_me=1 / trellis=2 / 8x8dct=1 / cqm=0 / deadzone=21,11 / fast_pskip=1 / chroma_qp_offset=-3 / threads=12 / lookahead_threads=3 / sliced_threads=0 / nr=0 / decimate=1 / interlaced=0 / bluray_compat=0 / constrained_intra=0 / bframes=10 / b_pyramid=2 / b_adapt=2 / b_bias=0 / direct=3 / weightb=1 / open_gop=0 / weightp=2 / keyint=250 / keyint_min=24 / scenecut=40 / intra_refresh=0 / rc_lookahead=40 / rc=crf / mbtree=0 / crf=18.0 / qcomp=0.60 / qpmin=10 / qpmax=51 / qpstep=4 / vbv_maxrate=50000 / vbv_bufsize=62500 / crf_max=0.0 / nal_hrd=none / ip_ratio=1.40 / pb_ratio=1.30 / aq=2:1.00
Язык : English
Default : Да
Forced : Нет
Аудио #1
Идентификатор : 2
Формат : DTS
Формат/Информация : Digital Theater Systems
Режим : 16
Параметр Endianness формата : Big
Идентификатор кодека : A_DTS
Продолжительность : 1 ч. 25 м.
Вид битрейта : Постоянный
Битрейт : 1510 Кбит/сек
Каналы : 6 каналов
Расположение каналов : Front: L C R, Side: L R, LFE
Частота : 48,0 КГц
Битовая глубина : 16 бит
Метод сжатия : С потерями
Размер потока : 920 Мбайт (11%)
Заголовок : дублированный
Язык : Russian
Default : Да
Forced : Нет
Аудио #2
Идентификатор : 3
Формат : DTS
Формат/Информация : Digital Theater Systems
Режим : 16
Параметр Endianness формата : Big
Идентификатор кодека : A_DTS
Продолжительность : 1 ч. 25 м.
Вид битрейта : Постоянный
Битрейт : 1510 Кбит/сек
Каналы : 6 каналов
Расположение каналов : Front: L C R, Side: L R, LFE
Частота : 48,0 КГц
Битовая глубина : 24 бит
Метод сжатия : С потерями
Размер потока : 920 Мбайт (11%)
Заголовок : English
Язык : English
Default : Нет
Forced : Нет
Текст #1
Идентификатор : 4
Формат : UTF-8
Идентификатор кодека : S_TEXT/UTF8
Идентификатор кодека/Информация : UTF-8 Plain Text
Язык : Russian
Default : Нет
Forced : Нет
Текст #2
Идентификатор : 5
Формат : UTF-8
Идентификатор кодека : S_TEXT/UTF8
Идентификатор кодека/Информация : UTF-8 Plain Text
Язык : English
Default : Нет
Forced : Нет
Меню
00:00:00.000 : :00:00:00.000
00:05:49.224 : :00:05:49.224
00:12:37.882 : :00:12:37.882
00:24:17.956 : :00:24:17.956
00:33:50.487 : :00:33:50.487
00:44:55.484 : :00:44:55.484
00:52:17.551 : :00:52:17.551
00:59:34.529 : :00:59:34.529
01:04:45.507 : :01:04:45.507
01:07:53.236 : :01:07:53.236
01:13:05.298 : :01:13:05.298
01:20:07.136 : :01:20:07.136

х264

x264 [info]: frame I:697 Avg QP:17.04 size:147020
x264 [info]: frame P:27026 Avg QP:18.08 size: 90703
x264 [info]: frame B:94796 Avg QP:20.17 size: 45207
x264 [info]: consecutive B-frames: 2.7% 3.3% 9.7% 15.1% 12.0% 42.8% 6.0% 1.8% 2.9% 1.8% 1.8%
x264 [info]: mb I I16..4: 13.7% 75.6% 10.7%
x264 [info]: mb P I16..4: 3.3% 33.4% 2.4% P16..4: 24.3% 17.6% 6.6% 0.0% 0.0% skip:12.3%
x264 [info]: mb B I16..4: 0.4% 5.5% 0.2% B16..8: 38.5% 14.0% 3.3% direct:11.9% skip:26.1% L0:41.5% L1:40.5% BI:18.0%
x264 [info]: 8x8 transform intra:86.5% inter:55.5%
x264 [info]: direct mvs spatial:100.0% temporal:0.0%
x264 [info]: coded y,uvDC,uvAC intra: 91.0% 89.2% 71.1% inter: 43.6% 34.0% 7.0%
x264 [info]: i16 v,h,dc,p: 49% 13% 11% 27%
x264 [info]: i8 v,h,dc,ddl,ddr,vr,hd,vl,hu: 10% 11% 11% 9% 12% 10% 12% 11% 14%
x264 [info]: i4 v,h,dc,ddl,ddr,vr,hd,vl,hu: 8% 11% 6% 9% 14% 12% 15% 10% 15%
x264 [info]: i8c dc,h,v,p: 44% 20% 16% 20%
x264 [info]: Weighted P-Frames: Y:2.0% UV:1.1%
x264 [info]: ref P L0: 49.0% 10.7% 27.7% 11.2% 1.3% 0.0%
x264 [info]: ref B L0: 85.5% 11.9% 2.6%
x264 [info]: ref B L1: 92.7% 7.3%
x264 [info]: kb/s:10707.08

Скриншоты

[Профиль] [ЛС]
Показать сообщения:    

Текущее время: Сегодня 14:51

Часовой пояс: GMT



Вы не можете начинать темы
Вы не можете отвечать на сообщения
Вы не можете редактировать свои сообщения
Вы не можете удалять свои сообщения
Вы не можете голосовать в опросах
Вы не можете прикреплять файлы к сообщениям
Вы не можете скачивать файлы