Тату / Tatau [S01] (2015) WEB-DL 720p | NikiStudio

 
Автор Сообщение

достали все ®

Пол:

Стаж: 1 год 8 месяцев

Сообщений: 6554



Награды: 12 (Подробнее)

Mega Seeder 1 (Количество: 1) Mega Releaser 2 (Количество: 1) Mega Seeder 2 (Количество: 1)
Торрент-статистика

Создавать темы 04-Окт-2015 08:35

[Цитировать]

Название: Тату / Татау
Оригинальное название: Tatau
Год выхода: 2015
Жанр: фантастика, детектив
Режиссер: Уэйн Йип, Майкл Херст
В ролях: Джо Лэйтон, Тео Барклем-Биггз, Циан Элиз Уайт, Шушила Такао, Алекс Таррант, Темуэра Моррисон, Кирк Торранс, Андре Кинг и др.
О фильме: Кайл и Бадж — двое 20-летних друзей из Лондона, которые отправились путешествовать по миру. Перед поездкой Кайл набивает татуировку в стиле маори, узор которой вертелся у него в голове несколько лет. На завершающем этапе путешествия — острове Кука — они думают, что попали в Рай на Земле. Но не всё являет тем, чем кажется. Парни пробуют священный напиток Аватави, и Кайлу начинает видеться местная девушка, которая просит спасти её. В попытках разобраться, что к чему, Кайл и Бадж всё глубже погружаются в мир маори, реальный и воображаемый…
Страна: Великобритания
Продолжительность: ~00:43:00
Перевод: Любительский (многоголосый закадровый) NikiStudio
Субтитры: Русские (NikiStudio Records), английские

Файл
Контейнер: MKV
Качество: WEB-DL 720p
Видео: AVC, 960@1280x720, 25.000 fps, ~ 3912 kbps, 0.226 bit/pixel
Аудио Rus: AC-3, 48 KHz, 2 ch, 192 kbps | NikiStudio Records
Аудио Eng: AC-3, 48 KHz, 2 ch, 192 kbps | original
Релиз группа:

MediaInfo

Формат : Matroska
Версия формата : Version 4 / Version 2
Размер файла : 1,32 Гбайт
Продолжительность : 43 м.
Общий поток : 4376 Кбит/сек
Дата кодирования : UTC 2015-08-16 08:29:38
Программа кодирования : mkvmerge v8.3.0 ('Over the Horizon') 64bit
Библиотека кодирования : libebml v1.3.1 + libmatroska v1.4.2
DURATION : 00:42:23.573000000
NUMBER_OF_FRAMES : 642
NUMBER_OF_BYTES : 19405
_STATISTICS_WRITING_APP : mkvmerge v8.3.0 ('Over the Horizon') 64bit
_STATISTICS_WRITING_DATE_UTC : 2015-08-16 08:29:38
_STATISTICS_TAGS : BPS DURATION NUMBER_OF_FRAMES NUMBER_OF_BYTES
Видео
Идентификатор : 1
Формат : AVC
Формат/Информация : Advanced Video Codec
Профиль формата : Main@L3.1
Параметр CABAC формата : Нет
Параметр ReFrames формата : 2 кадра
Идентификатор кодека : V_MPEG4/ISO/AVC
Продолжительность : 43 м.
Битрейт : 3905 Кбит/сек
Ширина : 960 пикселей
Высота : 720 пикселей
Соотношение сторон : 16:9
Режим частоты кадров : Постоянный
Частота кадров : 25,000 кадров/сек
Цветовое пространство : YUV
Субдискретизация насыщенности : 4:2:0
Битовая глубина : 8 бит
Тип развёртки : Прогрессивная
Бит/(Пиксели*Кадры) : 0.226
Размер потока : 1,18 Гбайт (89%)
Язык : English
Default : Да
Forced : Нет
Основные цвета : BT.709
Характеристики трансфера : BT.709
Коэффициенты матрицы : BT.709
colour_range : Limited
Аудио #1
Идентификатор : 2
Формат : AC-3
Формат/Информация : Audio Coding 3
Расширение режима : CM (complete main)
Параметр Endianness формата : Big
Идентификатор кодека : A_AC3
Продолжительность : 43 м.
Вид битрейта : Постоянный
Битрейт : 192 Кбит/сек
Каналы : 2 канала
Расположение каналов : Front: L R
Частота : 48,0 КГц
Битовая глубина : 16 бит
Метод сжатия : С потерями
Размер потока : 59,3 Мбайт (4%)
Заголовок : NikiStudio Records
Язык : Russian
Default : Да
Forced : Нет
Аудио #2
Идентификатор : 3
Формат : AC-3
Формат/Информация : Audio Coding 3
Расширение режима : CM (complete main)
Параметр Endianness формата : Big
Идентификатор кодека : A_AC3
Продолжительность : 43 м.
Вид битрейта : Постоянный
Битрейт : 192 Кбит/сек
Каналы : 2 канала
Расположение каналов : Front: L R
Частота : 48,0 КГц
Битовая глубина : 16 бит
Метод сжатия : С потерями
Размер потока : 59,3 Мбайт (4%)
Язык : English
Default : Нет
Forced : Нет
Текст #1
Идентификатор : 4
Формат : UTF-8
Идентификатор кодека : S_TEXT/UTF8
Идентификатор кодека/Информация : UTF-8 Plain Text
Заголовок : NikiStudio Records
Язык : Russian
Default : Нет
Forced : Нет
Текст #2
Идентификатор : 5
Формат : UTF-8
Идентификатор кодека : S_TEXT/UTF8
Идентификатор кодека/Информация : UTF-8 Plain Text
Язык : English
Default : Нет
Forced : Нет

Скриншоты

[Профиль] [ЛС]
Кто просматривает тему:

Показать сообщения:    

Текущее время: Сегодня 12:52

Часовой пояс: GMT



Вы не можете начинать темы
Вы не можете отвечать на сообщения
Вы не можете редактировать свои сообщения
Вы не можете удалять свои сообщения
Вы не можете голосовать в опросах
Вы не можете прикреплять файлы к сообщениям
Вы не можете скачивать файлы