Татуированный / Le tatoué (1968) BDRip 720p от ivandubskoj | P

 
Автор Сообщение

Russian Mafia ®

Пол:

Стаж: 1 год 8 месяцев

Сообщений: 4253



Награды: 10 (Подробнее)

За внесенный вклад в развитие сайта (Количество: 1) Mega Seeder 2 (Количество: 1) Top Releaser 4 (Количество: 1)
Торрент-статистика

Создавать темы 07-Окт-2016 20:21

[Цитировать]

Информация о фильме
Название: Татуированный
Оригинальное название: Le tatoué
Год выхода: 1968
Жанр: Комедия, приключения
Режиссёр: Дени Де Ла Пательер
В ролях: Луи Де Фюнес, Жан Габен, Поль Мерсе, Ив Барсако, Пьер Торнад, Жен-Пьер Дарра, Джо Уорфилд, Доналд Й. Фон Курц, Лин Шардонне, Доминик Даврэй
О фильме:
Шустрый и нечистоплотный торговец антиквариатом Фелисьен Мезере случайно видит на широкой спине позирующего художнику пожилого человека необычную татуировку. Опытный глаз пройдохи сразу определяет руку мастера — и действительно, этот рисунок когда-то сделал майору Леграну великий Модильяни. Фелисьен незамедлительно предлагает Леграну продать кожу со спины за любые деньги, но тот с возмущением отвергает абсурдное предложение. Но обезумевший от жадности антиквар готов на все, лишь бы заполучить в свои руки бесценный шедевр и продать его втридорога. Легран в конце концов соглашается, но в обмен на небольшую услугу. Фелисьен не раздумывая соглашается, и они отправляются в необычное путешествие...
Выпущено: Франция, Италия, Ascot, Cineraid, Les Films Copernic, Les Films Corona
Продолжительность: 01:30:05
Перевод: Профессиональный многоголосый (Film Prestige), профессиональный многоголосый (ЗАО «ОРТ-Видео»), профессиональный многоголосый
Оригинальная аудио-дорожка: Французская
Файл
Кодек: MPEG-4 AVC
Контейнер: MKV
Качество: BDRip 720p [BDRemux 1080p]
Видео: MPEG-4 AVC, 1280x544 (2.35:1), 4000 Кбит/с, 24 кадр/с
Аудио #1: Русский, Dolby AC3, 48000 Гц, 192 Кбит/с, 2 канала (Стерео) - MVO [Film Prestige]
Аудио #2: Русский, Dolby AC3, 48000 Гц, 192 Кбит/с, 2 канала (Стерео) - MVO [ЗАО «ОРТ-Видео»]
Аудио #3: Русский, Dolby AC3, 48000 Гц, 192 Кбит/с, 2 канала (Стерео) - MVO
Аудио #4: Французский, Dolby AC3, 48000 Гц, 224 Кбит/с, 2 канала (Стерео) - Оригинал
Субтитры: Русские (полные) SRT
Навигация по главам: Есть

Знаете ли вы, что...

Снявшиеся в дуэте в нескольких замечательных картинах, в жизни Жан Габен и Луи де Фюнес ненавидели друг друга. Жан Габен завидовал славе Луи де Фюнеса, считал его выскочкой и терпеть не мог то, что продюсеры во всем слушались знаменитого комика, а сам де Фюнес перед камерой постоянно импровизировал и менял сценарий по своему усмотрению, что тоже бесило Габена. Де Фюнес не терпел в Габене спесь, и боязнь хоть на шаг отступить от написанного сценария.
Луи де Фюнес и Жан Габен встретились в этой картине в третий и последний раз в своих карьерах. Впервые они снялись вместе в фильме «Через Париж» Клода Отан-Лора в 1956, затем была комедия «Джентльмен из Эпсома» 1962-го.

x264

x264 [info]: profile High, level 4.1
x264 [info]: frame I:955 Avg QP:16.68 size:135358
x264 [info]: frame P:29183 Avg QP:18.56 size: 43512
x264 [info]: frame B:99600 Avg QP:20.37 size: 13089
x264 [info]: consecutive B-frames: 1.9% 2.6% 5.6% 25.3% 37.5% 23.5% 2.3% 0.8% 0.2% 0.4%

MediaInfo

General
Unique ID : 224366969986461059033232755045464727813 (0xA8CB81B0B933A25E865657B6AC5EE105)
Complete name : Le.tatoué.1968.BDRip.720p.mkv
Format : Matroska
Format version : Version 4 / Version 2
File size : 3.02 GiB
Duration : 1h 30mn
Overall bit rate : 4 802 Kbps
Movie name : Татуированный / Le tatoué (1968) BDRip (720p) от ivandubskoj
Encoded date : UTC 2016-10-07 12:55:15
Writing application : mkvmerge v7.9.0 ('Birds') 64bit
Writing library : libebml v1.3.1 + libmatroska v1.4.2
Video
ID : 1
Format : AVC
Format/Info : Advanced Video Codec
Format profile : High@L4.1
Format settings, CABAC : Yes
Format settings, ReFrames : 10 frames
Codec ID : V_MPEG4/ISO/AVC
Duration : 1h 30mn
Bit rate : 4 000 Kbps
Width : 1 280 pixels
Height : 544 pixels
Display aspect ratio : 2.35:1
Frame rate mode : Constant
Frame rate : 24.000 fps
Color space : YUV
Chroma subsampling : 4:2:0
Bit depth : 8 bits
Scan type : Progressive
Bits/(Pixel*Frame) : 0.239
Stream size : 2.46 GiB (81%)
Title : Le tatoué (1968)
Writing library : x264 core 148 r2597 e86f3a1
Encoding settings : cabac=1 / ref=10 / deblock=1:-3:-3 / analyse=0x3:0x113 / me=umh / subme=10 / psy=1 / psy_rd=1.00:0.00 / mixed_ref=1 / me_range=32 / chroma_me=1 / trellis=2 / 8x8dct=1 / cqm=0 / deadzone=21,11 / fast_pskip=0 / chroma_qp_offset=-2 / threads=6 / lookahead_threads=1 / sliced_threads=0 / nr=0 / decimate=0 / interlaced=0 / bluray_compat=0 / constrained_intra=0 / bframes=9 / b_pyramid=2 / b_adapt=2 / b_bias=0 / direct=3 / weightb=1 / open_gop=0 / weightp=2 / keyint=240 / keyint_min=23 / scenecut=40 / intra_refresh=0 / rc_lookahead=40 / rc=2pass / mbtree=0 / bitrate=4000 / ratetol=1.0 / qcomp=0.60 / qpmin=0 / qpmax=69 / qpstep=4 / cplxblur=20.0 / qblur=0.5 / vbv_maxrate=50000 / vbv_bufsize=62500 / nal_hrd=none / filler=0 / ip_ratio=1.40 / pb_ratio=1.30 / aq=1:1.00
Language : French
Default : Yes
Forced : No
Audio #1
ID : 2
Format : AC-3
Format/Info : Audio Coding 3
Mode extension : CM (complete main)
Format settings, Endianness : Big
Codec ID : A_AC3
Duration : 1h 30mn
Bit rate mode : Constant
Bit rate : 192 Kbps
Channel(s) : 2 channels
Channel positions : Front: L R
Sampling rate : 48.0 KHz
Bit depth : 16 bits
Compression mode : Lossy
Stream size : 124 MiB (4%)
Title : MVO [Film Prestige]
Language : Russian
Default : Yes
Forced : No
Audio #2
ID : 3
Format : AC-3
Format/Info : Audio Coding 3
Mode extension : CM (complete main)
Format settings, Endianness : Big
Codec ID : A_AC3
Duration : 1h 30mn
Bit rate mode : Constant
Bit rate : 192 Kbps
Channel(s) : 2 channels
Channel positions : Front: L R
Sampling rate : 48.0 KHz
Bit depth : 16 bits
Compression mode : Lossy
Stream size : 124 MiB (4%)
Title : MVO [3AO OPT-BИДEO]
Language : Russian
Default : No
Forced : No
Audio #3
ID : 4
Format : AC-3
Format/Info : Audio Coding 3
Mode extension : CM (complete main)
Format settings, Endianness : Big
Codec ID : A_AC3
Duration : 1h 30mn
Bit rate mode : Constant
Bit rate : 192 Kbps
Channel(s) : 2 channels
Channel positions : Front: L R
Sampling rate : 48.0 KHz
Bit depth : 16 bits
Compression mode : Lossy
Stream size : 124 MiB (4%)
Title : MVO
Language : Russian
Default : No
Forced : No
Audio #4
ID : 5
Format : AC-3
Format/Info : Audio Coding 3
Mode extension : CM (complete main)
Format settings, Endianness : Big
Codec ID : A_AC3
Duration : 1h 30mn
Bit rate mode : Constant
Bit rate : 224 Kbps
Channel(s) : 2 channels
Channel positions : Front: L R
Sampling rate : 48.0 KHz
Bit depth : 16 bits
Compression mode : Lossy
Stream size : 144 MiB (5%)
Title : Original
Language : French
Default : No
Forced : No
Text
ID : 6
Format : UTF-8
Codec ID : S_TEXT/UTF8
Codec ID/Info : UTF-8 Plain Text
Title : Full
Language : Russian
Default : No
Forced : No
Menu
00:00:00.000 : fr:Chapitre 1
00:09:00.000 : fr:Chapitre 2
00:18:00.000 : fr:Chapitre 3
00:27:00.000 : fr:Chapitre 4
00:36:00.000 : fr:Chapitre 5
00:45:00.000 : fr:Chapitre 6
00:54:00.000 : fr:Chapitre 7
01:03:00.000 : fr:Chapitre 8
01:12:00.000 : fr:Chapitre 9
01:21:00.000 : fr:Chapitre 10

Скриншоты

[Профиль] [ЛС]
Показать сообщения:    

Текущее время: Сегодня 01:07

Часовой пояс: GMT



Вы не можете начинать темы
Вы не можете отвечать на сообщения
Вы не можете редактировать свои сообщения
Вы не можете удалять свои сообщения
Вы не можете голосовать в опросах
Вы не можете прикреплять файлы к сообщениям
Вы не можете скачивать файлы