Тартак (Виктор Карпилов) [1973, военный фильм, драма, DVB]

 
Автор Сообщение

reversefile ®

Пол:

Стаж: 4 года 5 месяцев

Сообщений: 842

Откуда: ReverseFile.org



Награды: Нет

Торрент-статистика

Создавать темы 11-Авг-2014 06:20

[Цитировать]

Тартак
Жанр: военный фильм, драма
Год выпуска: 1973
Продолжительность: 01:18:56
Режиссёр: Виктор Карпилов
В ролях: Майя Булгакова, Степан Хацкевич, Павел Кормунин, Фёдор Шмаков, Иосиф Матусевич, Алина Недвецкая, Олег Сидорчик, С. Александрова, А. Букаев, Г. Вельц, Геннадий Гарбук, Маргарита Громова, Александр Добротин, Павел Дубашинский, Мария Захаревич, Владимир Кудревич, Эдуардас Кунавичюс, С. Матюкевич, А. Михеенко, Г. Подляцкий, Константин Сенкевич, Вика Бурачевская, Лена Стриженок, Дима Третьяков
Описание: Великая Отечественная война. Семеро крестьян из деревни Дальва везут на обозах собранное зерно в деревню Тартак. По дороге их останавливают каратели. Чтобы уберечься от пуль народных мстителей, они заставляют селян ехать впереди своей колонны.
Доп. информация: Запись потока *.ts со спутника ABS-2, 75° в.д., ремукс в *.mpg программой VideoReDo.
Качество видео: DVB
Формат видео: MPEG-PS
Видео: MPEG Video, 544(768)x576 (4:3), 25,000 кадров/сек, 2652 Кбит/сек
Аудио: MPEG Audio, 48,0 КГц, 192 Кбит/сек, 2 канала

MediaInfo

Общее
Полное имя : D:\Torrent\Тартак (TRO).mpg
Формат : MPEG-PS
Размер файла : 1,60 Гбайт
Продолжительность : 1 ч. 18 м.
Режим общего битрейта : Переменный
Общий поток : 2902 Кбит/сек
Видео
Идентификатор : 224 (0xE0)
Формат : MPEG Video
Версия формата : Version 2
Профиль формата : Main@Main
Параметр BVOP формата : Да
Параметр матрицы формата : Выборочная
Параметр GOP формата : Variable
Продолжительность : 1 ч. 18 м.
Вид битрейта : Переменный
Битрейт : 2652 Кбит/сек
Максимальный битрейт : 15,0 Мбит/сек
Ширина : 544 пикселя
Высота : 576 пикселей
Соотношение сторон : 4:3
Частота кадров : 25,000 кадров/сек
Цветовое пространство : YUV
Субдискретизация насыщенности : 4:2:0
Битовая глубина : 8 бит
Тип развёртки : Чересстрочная
Порядок развёртки : Верхнее поле первое
Метод сжатия : С потерями
Бит/(Пиксели*Кадры) : 0.339
Временной код первого кадра : 00:00:00:00
Оригинал временного кода : Group of pictures header
Размер потока : 1,46 Гбайт (91%)
Аудио
Идентификатор : 192 (0xC0)
Формат : MPEG Audio
Версия формата : Version 1
Профиль формата : Layer 2
Продолжительность : 1 ч. 18 м.
Вид битрейта : Постоянный
Битрейт : 192 Кбит/сек
Каналы : 2 канала
Частота : 48,0 КГц
Метод сжатия : С потерями
Задержка видео : 15 мс.
Размер потока : 108 Мбайт (7%)
[Профиль] [ЛС]

Создавать темы 06-Авг-2015 22:04 (спустя 11 месяцев 26 дней)

Топик был перенесен из форума Кино СССР в форум Кино СССР
sergej644
 
Показать сообщения:    

Текущее время: Сегодня 22:31

Часовой пояс: GMT



Вы не можете начинать темы
Вы не можете отвечать на сообщения
Вы не можете редактировать свои сообщения
Вы не можете удалять свои сообщения
Вы не можете голосовать в опросах
Вы не можете прикреплять файлы к сообщениям
Вы не можете скачивать файлы