Тариф "Счастливая семья" (Алина Чеботарева) [2013, мелодрама, HDTVRip 720p]

 
Автор Сообщение

reversefile ®

Пол:

Стаж: 4 года 5 месяцев

Сообщений: 842

Откуда: ReverseFile.org



Награды: Нет

Торрент-статистика

Создавать темы 13-Авг-2014 18:27

[Цитировать]

Тариф "Счастливая семья"
Страна: Россия
Производство: Кинокомпания УПС
Жанр: мелодрама
Год выпуска: 2013
Продолжительность: 01:29:34
Субтитры: нет
Режиссер: Алина Чеботарева
В ролях: Мария Андреева, Алексей Анищенко, Сергей Романюк, Кирилл Жандаров, Евгений Капорин, Сергей Журавлёв, Вита Смачелюк, Любава Грешнова, Дарина Лобода, Ольга Радчук, Денис Толяренко
Описание: Нина получает известие о том, что ее дедушка Павел Алексеевич Назаров попал в больницу с обширным инфарктом. Девушка срочно выезжает в Старосельск, чтобы выяснить, что случилось с ее дедом. Когда Нина приезжает в городок, к ней начинают проявлять внимания ее бывший одноклассник, хамоватый предприниматель Славик, и преемник ее деда на должности директора школы, неуверенный в себе Антон. Да еще к ней по пустякам каждый раз придирается оперативник Виктор. Нина просит своего столичного жениха, однокурсника Кирилла, приехать и привезти из Москвы лекарство для Павла Алексеевича. Все мужчины, окружающие Нину, проявляют себя по-разному. Нина переживает измену, предательство, подлость и все равно верит, что у нее будет семейное счастье...

Автор рипа / записи: fanatus
Качество видео: HDTVRip 720p
Исходник: Запись с телеканала РОССИЯ HD
Контейнер: MKV
Видео: MPEG-4 AVC, 3000 kbps, 1280x720 (16:9), 25.000 fps, 0.130 bit/pixel
Аудио: AC3, 2 ch, 48 kHz, 192 kbps

MediaInfo

General
Unique ID : 238957431824781553771454329278845121928 (0xB3C586FFA84927C3B9BC7134236B7588)
Complete name : F:\Tarif_Schastlivaja_semja.2013.x264.HDTVRip.720p.fanatus.mkv
Format : Matroska
Format version : Version 2
File size : 2.00 GiB
Duration : 1h 29mn
Overall bit rate : 3 193 Kbps
Movie name : Tarif Schastlivaja semja (2013) - fanatus
Encoded date : UTC 2014-04-01 06:51:12
Writing application : mkvmerge v3.4.0 ('Rapunzel') сборка от May 15 2010 09:38:20
Writing library : libebml v0.8.0 + libmatroska v0.9.0
Video
ID : 1
Format : AVC
Format/Info : Advanced Video Codec
Format profile : High@L4.1
Format settings, CABAC : Yes
Format settings, ReFrames : 9 frames
Codec ID : V_MPEG4/ISO/AVC
Duration : 1h 29mn
Bit rate : 3 000 Kbps
Width : 1 280 pixels
Height : 720 pixels
Display aspect ratio : 16:9
Frame rate : 25.000 fps
Color space : YUV
Chroma subsampling : 4:2:0
Bit depth : 8 bits
Scan type : Progressive
Bits/(Pixel*Frame) : 0.130
Stream size : 1.84 GiB (92%)
Title : Tarif Schastlivaja semja (2013) HDTVRip 720p
Writing library : x264 core 138 r2358 9e941d1
Encoding settings : cabac=1 / ref=9 / deblock=1:-2:-2 / analyse=0x3:0x113 / me=umh / subme=10 / psy=1 / psy_rd=1.00:0.10 / mixed_ref=1 / me_range=32 / chroma_me=1 / trellis=2 / 8x8dct=1 / cqm=0 / deadzone=21,11 / fast_pskip=0 / chroma_qp_offset=-3 / threads=16 / lookahead_threads=2 / sliced_threads=0 / nr=0 / decimate=0 / interlaced=0 / bluray_compat=0 / constrained_intra=0 / bframes=9 / b_pyramid=2 / b_adapt=2 / b_bias=0 / direct=3 / weightb=1 / open_gop=0 / weightp=2 / keyint=250 / keyint_min=25 / scenecut=40 / intra_refresh=0 / rc=2pass / mbtree=0 / bitrate=3000 / ratetol=1.0 / qcomp=0.65 / qpmin=0 / qpmax=69 / qpstep=4 / cplxblur=20.0 / qblur=0.5 / ip_ratio=1.40 / pb_ratio=1.30 / aq=1:0.90
Language : Russian
Default : Yes
Forced : No
Matrix coefficients : BT.709-5, BT.1361, IEC 61966-2-4 709, SMPTE RP177
Audio
ID : 2
Format : AC-3
Format/Info : Audio Coding 3
Mode extension : CM (complete main)
Format settings, Endianness : Big
Codec ID : A_AC3
Duration : 1h 29mn
Bit rate mode : Constant
Bit rate : 192 Kbps
Channel(s) : 2 channels
Channel positions : Front: L R
Sampling rate : 48.0 KHz
Bit depth : 16 bits
Compression mode : Lossy
Stream size : 123 MiB (6%)
Language : Russian
Default : Yes
Forced : No

Скриншот c названием фильма

Скриншоты

[Профиль] [ЛС]
Показать сообщения:    

Текущее время: Сегодня 12:36

Часовой пояс: GMT



Вы не можете начинать темы
Вы не можете отвечать на сообщения
Вы не можете редактировать свои сообщения
Вы не можете удалять свои сообщения
Вы не можете голосовать в опросах
Вы не можете прикреплять файлы к сообщениям
Вы не можете скачивать файлы