Тариф Новогодний (Евгений Бедарев)[2008,Фэнтези, комедия,BDRip 1080p] [Лицензия]

 
Автор Сообщение

sergej644 ®

Пол:

Стаж: 4 года 11 месяцев

Сообщений: 6043

Откуда: Soviet Union



Награды: Нет

Торрент-статистика

Создавать темы 17-Окт-2014 18:03

[Цитировать]

-Тариф Новогодний- Информация о фильме
Название: Тариф Новогодний
Год выхода: 2008
Страна: Россия
Жанр: Фэнтези, комедия
Студия: Profit, Телесто
Продолжительность: 01:26:08
Перевод: Не требуется
Режиссер: Евгений Бедарев

В ролях:
Валерия Ланская, Максим Матвеев, Екатерина Маликова, Евгений Славский, Мария Аронова, Дмитрий Дюжев, Мирослава Карпович, Михаил Пореченков, Роман Полянский, Валерий Меладзе, Татьяна Васильева, Анастасия Цветаева, Марк Богатырев, Нонна Гришаева, Борис Корчевников, Станислав Беляев, Лана Щербакова, Татьяна Орлова, Владимир Крылов, Юрий Цурило, Федор Добронравов
О фильме:
Новогодняя ночь всегда полна чудес и сюрпризов. Чудеса нашего времени часто происходят благодаря техническому прогрессу, хотя и не без участия Деда Мороза, который нынче может оказаться простым продавцом телефона Мечты…

Файл
Кодек: AVC
Качество: BDRip 1080p
Видео: 1920x816, 23.976 fps, 11 Mbps
Звук: DTS, 48 kHz, 6 ch, 1510 Kbps

Media Info

General
Unique ID                                : 215272058168181478031650822848739781834 (0xA1F3E3EACE335C16884D0B434FB3ACCA)
Complete name                            : F:Загрузки µTorrentTarif.Novogodnij.2008.VC-1.BDRip(1080p).mkv
Format                                   : Matroska
Format version                           : Version 2
File size                                : 7.53 GiB
Duration                                 : 1h 26mn
Overall bit rate                         : 12.5 Mbps
Encoded date                             : UTC 2009-10-26 04:36:58
Writing application                      : mkvmerge v2.9.7 ('Tenderness') built on Jul  1 2009 18:43:35
Writing library                          : libebml v0.7.7 + libmatroska v0.8.1
Video
ID                                       : 1
Format                                   : AVC
Format/Info                              : Advanced Video Codec
Format profile                           : High@L4.1
Format settings, CABAC                   : Yes
Format settings, ReFrames                : 2 frames
Codec ID                                 : V_MPEG4/ISO/AVC
Duration                                 : 1h 26mn
Bit rate                                 : 11.0 Mbps
Width                                    : 1 920 pixels
Height                                   : 816 pixels
Display aspect ratio                     : 2.35:1
Frame rate                               : 23.976 fps
Color space                              : YUV
Chroma subsampling                       : 4:2:0
Bit depth                                : 8 bits
Scan type                                : Progressive
Bits/(Pixel*Frame)                       : 0.293
Stream size                              : 6.47 GiB (86%)
Writing library                          : x264 core 77 r1292 e381f6d
Encoding settings                        : cabac=1 / ref=2 / deblock=1:0:0 / analyse=0x3:0x113 / me=hex / subme=6 / psy=1 / psy_rd=1.0:0.0 / mixed_ref=1 / me_range=16 / chroma_me=1 / trellis=1 / 8x8dct=1 / cqm=0 / deadzone=21,11 / chroma_qp_offset=-2 / threads=3 / nr=0 / decimate=1 / mbaff=0 / constrained_intra=0 / bframes=3 / b_pyramid=0 / b_adapt=1 / b_bias=0 / direct=1 / wpredb=1 / keyint=250 / keyint_min=25 / scenecut=40 / rc_lookahead=30 / rc=2pass / mbtree=1 / bitrate=11000 / ratetol=1.0 / qcomp=0.60 / qpmin=10 / qpmax=51 / qpstep=4 / cplxblur=20.0 / qblur=0.5 / ip_ratio=1.40 / aq=1:1.00
Language                                 : Russian
Default                                  : Yes
Forced                                   : No
Audio
ID                                       : 2
Format                                   : DTS
Format/Info                              : Digital Theater Systems
Codec ID                                 : A_DTS
Duration                                 : 1h 26mn
Bit rate mode                            : Constant
Bit rate                                 : 1 510 Kbps
Channel(s)                               : 6 channels
Channel positions                        : Front: L C R, Side: L R, LFE
Sampling rate                            : 48.0 KHz
Bit depth                                : 16 bits
Compression mode                         : Lossy
Stream size                              : 930 MiB (12%)
Language                                 : Russian
Default                                  : Yes
Forced                                   : No
-

Скриншоты

--
[Профиль] [ЛС]
Показать сообщения:    

Текущее время: Сегодня 18:37

Часовой пояс: GMT



Вы не можете начинать темы
Вы не можете отвечать на сообщения
Вы не можете редактировать свои сообщения
Вы не можете удалять свои сообщения
Вы не можете голосовать в опросах
Вы не можете прикреплять файлы к сообщениям
Вы не можете скачивать файлы