Тарзан. Легенда / The Legend of Tarzan (2016) HDRip | КПК | D

 
Author Message

Шкипер ®

Gender:

Longevity: 5 years 6 months

Posts: 60



: None

Торрент-статистика

Post 26-Oct-2016 13:04

[Quote]

Информация о фильме
Название: Тарзан. Легенда
Оригинальное название: The Legend of Tarzan
Год выхода: 2016
Жанр: Боевик, драма, мелодрама, приключения
Режиссер: Дэвид Йэтс
В ролях:
Александр Скарсгард, Марго Робби, Сэмюэл Л. Джексон, Кристоф Вальц, Джимон Хонсу, Джим Бродбент, Каспер Крамп, Хэдли Фрайзер, Женевьев О’Рейли, Саймон Расселл Бил
Роли дублировали: Алексей Рязанцев, Полина Кузьминская, Константин Карасик, Василий Дахненко, и другие
О фильме: Приспособившийся к жизни в Лондоне Тарзан возвращается в свой бывший дом, в джунгли, чтобы разобраться в том, что происходит в лагере горнодобывающей компании.

Страна: США, Великобритания, Канада
Студия: Village Roadshow Pictures, Jerry Weintraub, Productions, Dark Horse Entertainment
Продолжительность: 01:49:58
Перевод: Профессиональный (полное дублирование) [Лицензия]
Файл
Кодек: h264
Качество: HDRip| КПК
Видео: MPEG4 Video (H264), 496x208 (2.40:1), 23.976fps, 350kbps, 0.141Bits/Pixel
Звук: AAC, 44100Hz, 2ch, 125kbps
Субтитры: Отсутствуют
Семпл

MI

General
Complete name : D:Изготовление рипаThe.Legend.of.Tarzan.2016.HDRip.by shkiper.mp4
Format : MPEG-4
Format profile : Base Media
Codec ID : isom
File size : 376 MiB
Duration : 1h 49mn
Overall bit rate mode : Variable
Overall bit rate : 478 Kbps
Encoded date : UTC 2016-10-25 08:39:27
Tagged date : UTC 2016-10-25 08:39:27
Video
ID : 1
Format : AVC
Format/Info : Advanced Video Codec
Format profile : Baseline@L3.0
Format settings, CABAC : No
Format settings, ReFrames : 1 frame
Codec ID : avc1
Codec ID/Info : Advanced Video Coding
Duration : 1h 49mn
Bit rate : 350 Kbps
Maximum bit rate : 1 147 Kbps
Width : 496 pixels
Height : 208 pixels
Display aspect ratio : 2.40:1
Frame rate mode : Constant
Frame rate : 23.976 fps
Color space : YUV
Chroma subsampling : 4:2:0
Bit depth : 8 bits
Scan type : Progressive
Bits/(Pixel*Frame) : 0.141
Stream size : 275 MiB (73%)
Title : Imported with GPAC 0.4.6-DEV (internal rev. 5)
Writing library : x264 core 67 r1165M 6841c5e
Encoded date : UTC 2016-10-25 08:39:27
Tagged date : UTC 2016-10-25 08:39:57
Audio
ID : 2
Format : AAC
Format/Info : Advanced Audio Codec
Format profile : LC
Codec ID : 40
Duration : 1h 49mn
Bit rate mode : Variable
Bit rate : 125 Kbps
Maximum bit rate : 288 Kbps
Channel count : 2 channels
Channel positions : Front: L R
Sampling rate : 44.1 KHz
Compression mode : Lossy
Stream size : 98.7 MiB (26%)
Title : Imported with GPAC 0.4.6-DEV (internal rev. 5)
Encoded date : UTC 2016-10-25 08:39:47
Tagged date : UTC 2016-10-25 08:39:57

Скриншоты

Релиз от:
[Profile] [PM]
Display posts from previous:    

The time now is: Today 01:59

All times are GMT



You cannot post new topics in this forum
You cannot reply to topics in this forum
You cannot edit your posts in this forum
You cannot delete your posts in this forum
You cannot vote in polls in this forum
You cannot attach files in this forum
You cannot download files in this forum