Тарзан. Легенда / The Legend of Tarzan (2016) WEB-DLRip | iTunes

 
Автор Сообщение

достали все ®

Пол:

Стаж: 1 год 8 месяцев

Сообщений: 6600



Награды: 12 (Подробнее)

Mega Seeder 1 (Количество: 1) Top Releaser 2 (Количество: 1) Mega Releaser 1 (Количество: 1)
Торрент-статистика

Создавать темы 21-Сен-2016 03:47

[Цитировать]

«Human. Nature»
Информация о фильме
Название: Тарзан. Легенда
Оригинальное название: The Legend of Tarzan
Год выхода: 2016
Жанр: Боевик, приключения
Режиссер: Дэвид Йэтс
В ролях: Александр Скарсгард, Рори Дж. Сапер, Christian Stevens, Кристоф Вальц, Сэмюэл Л. Джексон, Марго Робби, Sidney Ralitsoele, Ози Икхайл, , Менс-Сана Тамакло, Энтони Ачеампонг
О фильме:
Приспособившийся к жизни в Лондоне Тарзан возвращается в свой бывший дом, в джунгли, чтобы разобраться в том, что происходит в лагере горнодобывающей компании.

Страна: США
Студия: Dark Horse Entertainment, Jerry Weintraub Productions, Riche Productions, Village Roadshow Pictures
Продолжительность: 01:49:57
Перевод: Профессиональный (полное дублирование)[iTunes]
Файл
Качество: WEB-DLRip
Формат: AVI
Кодек: XviD
Видео: 720x304 (2,35:1), 23,976 fps, XviD ~1388 kbps avg, 0.264 bit/pixel
Аудио: AC3, 48 kHz, 6 ch, ~384.00 kbps avg | русский | Профессиональный (полное дублирование)[iTunes]
Субтитры: Отсутствуют
Семпл

Инфо-файл

Общее
Полное имя : D:The.Legend.of.Tarzan.2016.D.WEB-DLRip.1400MB.avi
Формат : AVI
Формат/Информация : Audio Video Interleave
Размер файла : 1,37 Гбайт
Продолжительность : 1 ч. 49 м.
Общий поток : 1781 Кбит/сек
Программа кодирования : VirtualDubMod 1.5.10.2 (build 2540/release)
Библиотека кодирования : VirtualDubMod build 2540/release
Видео
Идентификатор : 0
Формат : MPEG-4 Visual
Профиль формата : Advanced Simple@L5
Параметр BVOP формата : 2
Параметр QPel формата : Нет
Параметр GMC формата : Без точки перехода
Параметр матрицы формата : Default (MPEG)
Идентификатор кодека : XVID
Идентификатор кодека/Подсказка : XviD
Продолжительность : 1 ч. 49 м.
Битрейт : 1388 Кбит/сек
Ширина : 720 пикселей
Высота : 304 пикселя
Соотношение сторон : 2,35:1
Частота кадров : 23,976 (24000/1001) кадра/сек
Цветовое пространство : YUV
Субдискретизация насыщенности : 4:2:0
Битовая глубина : 8 бит
Тип развёртки : Прогрессивная
Метод сжатия : С потерями
Бит/(Пиксели*Кадры) : 0.264
Размер потока : 1,07 Гбайт (78%)
Библиотека кодирования : XviD 1.2.1 (UTC 2008-12-04)
Аудио
Идентификатор : 1
Формат : AC-3
Формат/Информация : Audio Coding 3
Расширение режима : CM (complete main)
Параметр Endianness формата : Big
Идентификатор кодека : 2000
Продолжительность : 1 ч. 49 м.
Вид битрейта : Постоянный
Битрейт : 384 Кбит/сек
Каналы : 6 каналов
Расположение каналов : Front: L C R, Side: L R, LFE
Частота : 48,0 КГц
Частота кадров : 31,250 кадров/сек (1536 spf)
Метод сжатия : С потерями
Размер потока : 302 Мбайт (22%)
Выравнивание : Разделение по промежуткам
Продолжительность промежутка : 42 мс. (1,00 видеокадр)
Время предзагрузки промежутка : 500 мс.

Скриншоты

[Профиль] [ЛС]
Показать сообщения:    

Текущее время: Сегодня 17:41

Часовой пояс: GMT



Вы не можете начинать темы
Вы не можете отвечать на сообщения
Вы не можете редактировать свои сообщения
Вы не можете удалять свои сообщения
Вы не можете голосовать в опросах
Вы не можете прикреплять файлы к сообщениям
Вы не можете скачивать файлы