Тарзан в 3Д / Tarzan 3D (Райнхард Клоосс / Reinhard Klooss) [2013, Мультфильм, Семейный, Приключения, BDrip-AVC] Half OverUnder / Вертикальная анаморфная стереопара

 
Автор Сообщение

BOSS ®

Пол:

Стаж: 2 года 1 месяц

Сообщений: 3712

Откуда: ODESSA



Награды: 20 (Подробнее)

Mega Releaser 1 (Количество: 1) Mega Seeder 1 (Количество: 1) Mega Seeder 5 (Количество: 1)
Торрент-статистика

Создавать темы 07-Окт-2015 20:03

[Цитировать]

- Тарзан
Tarzan

«Стань свидетелем возрождения легенды»

Год выпуска: 2013
Страна: Германия (Constantin Film, Ambient Entertainment)
Жанр: Мультфильм, Семейный, Приключения
Продолжительность: 1:34:11
Перевод: Профессиональный дублированный
Режиссер: Райнхард Клоосс / Reinhard Klooss-Роли озвучивали (не в русском релизе) (дублировали):

Tarzan - Келлан Латс
Jane Porter - Спенсер Лок (Наталья Терешкова)
William Clayton - Тревор Ст. Джон
Jim Porter - Лес Бабб (Андрей Казанцев)
Miller - Брайан Блум
Smith - Брайан Хаски
Derek - Роберт Капрон (Томас Шлеккер)
Alice - Джейми Рэй Ньюман
John Greystoke - Марк Деклин
-Описание: Во время крушения американского воздушного лайнера в джунглях погибли все пассажиры, выжил лишь один младенец. Он стал приемышем в стае диких обезьян, которые выкормили, вырастили его, научили выживать в этом жестком мире естественного отбора… Пришло время, и теперь мощный и ловкий, он должен защитить свой мир от врагов. Но главное — он должен снова стать человеком.

Знаете ли вы, что...:

  • Всего работа над фильмом длилась три года. Съемки проходили в четыре этапа: сначала были созданы раскадровки с 5000 иллюстрациями, потом был сделан полуреальный фильм с использованием технологии «захвата движения» актеров и каскадеров. Потом начался процесс монтажа, который длился целый год, когда записанные данные превращались в 3D-персонажей. И только после этого начался процесс самой анимации, которая заняла еще один год. Над фильмом работали 350 человек.
  • Для съемок фильма была использована технология motion capture («захват движения»), в которой снимались все сцены на планете «Пандора» в фильме «Аватар» (2009). Во время съемок актеры носили специальные костюмы, плотно облегающие тело, которые покрыты 68-ю крохотными сенсорами, информация с которых считывалась и обрабатывалась 60-ю инфракрасными камерами.
  • Первая книга о приключениях Тарзана вышла в 1914 году. Всего о короле джунглей Эдгар Райс Берроуз написал около 20 романов.
  • Первый фильм о Тарзане появился в 1918 году. С тех пор по мотивам книги было снято около 100 кино- и телефильмов. Роман о Тарзане наряду с историей графа Дракулы стал одной из самых экранизируемых произведений в мировой литературе.
  • Тарзана в разных возрастах сыграли четыре разных актера.
Премьера: 12 декабря 2013
Релиз на Blu-Ray (DVD) (Россия): 29 апреля 2014
Кассовые сборы: $26 245 725

. .
За исходный BD 3D спасибо
-Качество: BDRip (by Ash61) с BD 3D Rus
Контейнер: MKV
Формат 3D: Half OverUnder / Вертикальная анаморфная стереопара
Порядок ракурсов: левый ракурс первый
Видео кодек: x264
Аудио кодек: AC3-Видео: AVC / 23,976 fps / 1920х1080p / 10.5 Mbps
Аудио: Русский / AC3 / 48 KHz / 5.1 ch / 640 Kbps (Дубляж - BD 3D Rus)
Субтитры: Отсутствуют

MediaInfo

General
Unique ID : 199274561325292083977888546057739173424 (0x95EAE26D5A7AFC0293DF5B8FF8A1FE30)
Complete name : E:\Tarzan(2013)3D-halfOU(Ash61).mkv
Format : Matroska
Format version : Version 2
File size : 7.47 GiB
Duration : 1h 34mn
Overall bit rate : 11.4 Mbps
Movie name : Тарзан / Tarzan (2013) 3D
Encoded date : UTC 2014-04-27 17:01:09
Writing application : mkvmerge v5.8.0 ('No Sleep / Pillow') built on Sep 2 2012 15:37:04
Writing library : libebml v1.2.3 + libmatroska v1.3.0
Video
ID : 1
Format : AVC
Format/Info : Advanced Video Codec
Format profile : High@L4.1
Format settings, CABAC : Yes
Format settings, ReFrames : 4 frames
Codec ID : V_MPEG4/ISO/AVC
Duration : 1h 34mn
Bit rate : 10.5 Mbps
Width : 1 920 pixels
Height : 1 080 pixels
Display aspect ratio : 16:9
Frame rate mode : Constant
Frame rate : 23.976 fps
Color space : YUV
Chroma subsampling : 4:2:0
Bit depth : 8 bits
Scan type : Progressive
Bits/(Pixel*Frame) : 0.211
Stream size : 6.90 GiB (92%)
Title : BDRip by Ash61 (с BD 3D Rus)
Writing library : x264 core 129 r2245 bc13772
Encoding settings : cabac=1 / ref=4 / deblock=1:-3:-3 / analyse=0x3:0x113 / me=umh / subme=10 / psy=1 / psy_rd=1.00:0.15 / mixed_ref=1 / me_range=32 / chroma_me=1 / trellis=2 / 8x8dct=1 / cqm=0 / deadzone=21,11 / fast_pskip=1 / chroma_qp_offset=-3 / threads=12 / lookahead_threads=2 / sliced_threads=0 / nr=0 / decimate=1 / interlaced=0 / bluray_compat=0 / constrained_intra=0 / bframes=9 / b_pyramid=2 / b_adapt=2 / b_bias=0 / direct=3 / weightb=1 / open_gop=0 / weightp=2 / keyint=250 / keyint_min=23 / scenecut=40 / intra_refresh=0 / rc_lookahead=60 / rc=crf / mbtree=1 / crf=17.0 / qcomp=0.70 / qpmin=0 / qpmax=69 / qpstep=4 / vbv_maxrate=40000 / vbv_bufsize=30000 / crf_max=0.0 / nal_hrd=none / frame-packing=4 / ip_ratio=1.40 / aq=1:0.70
Language : English
Default : Yes
Forced : No
Audio
ID : 2
Format : AC-3
Format/Info : Audio Coding 3
Mode extension : CM (complete main)
Format settings, Endianness : Big
Codec ID : A_AC3
Duration : 1h 34mn
Bit rate mode : Constant
Bit rate : 640 Kbps
Channel(s) : 6 channels
Channel positions : Front: L C R, Side: L R, LFE
Sampling rate : 48.0 KHz
Bit depth : 16 bits
Compression mode : Lossy
Stream size : 431 MiB (6%)
Title : Дубляж - BD 3D Rus
Language : Russian
Default : Yes
Forced : No
Menu
00:00:00.000 : :1
00:07:15.477 : :2
00:12:43.346 : :3
00:18:35.156 : :4
00:24:38.227 : :5
00:30:01.675 : :6
00:36:28.853 : :7
00:42:11.863 : :8
00:48:29.448 : :9
00:53:28.580 : :10
01:00:08.313 : :11
01:05:35.140 : :12
01:11:38.503 : :13
01:18:32.291 : :14
01:25:17.988 : :15
01:28:02.986 : :16

Для оценки 3Д - Анимированные скрины















[Профиль] [ЛС]
Показать сообщения:    

Текущее время: Сегодня 20:08

Часовой пояс: GMT



Вы не можете начинать темы
Вы не можете отвечать на сообщения
Вы не можете редактировать свои сообщения
Вы не можете удалять свои сообщения
Вы не можете голосовать в опросах
Вы не можете прикреплять файлы к сообщениям
Вы не можете скачивать файлы