Тарас Бульба (2009) BDRip-AVC от ExKinoRay

 
Автор Сообщение

Russian Mafia ®

Пол:

Стаж: 1 год 8 месяцев

Сообщений: 4247



Награды: 10 (Подробнее)

Top Releaser 4 (Количество: 1) Mega Seeder 5 (Количество: 1) Mega Seeder 1 (Количество: 1)
Торрент-статистика

Создавать темы 22-Мар-2016 16:21

[Цитировать]

Информация о фильме
Оригинальное название: Тарас Бульба
Год выпуска: 2009
Жанр: Драма, военный, история
Выпущено: Россия, Централ Партнершип, Телеканал "Россия"
Режиссер: Владимир Бортко
В ролях: Богдан Ступка, Игорь Петренко, Владимир Вдовиченков, Магдалена Мельцаж, Любомирас Лауцявичюс, Ада Роговцева, Сергей Дрейден, Михаил Боярский, Юрий Беляев, Лесь Сердюк, Владимир Ильин, Борис Хмельницкий, Александр Дедюшко, Сергей Русскин, Геннадий Макоев, Пётр Зайченко, Иван Краско, Матлюба Алимова, Остап Ступка, Михаил Журавский, Тадеуш Парадович, Кшиштоф Гоштыла, Олег Пащенко, Даниэль Ольбрыхский, Василий Слюсаревский, Людмила Аржаникова, Екатерина Новикова, Станислав Соколов, Павел Бадыров, Анатолий Дубанов, Анна Кременчугская, Александр Примаченко, Иван Коротков, Евгений Ковба, Галина Качан, Данила Добруля, Игорь Брунько
О фильме: Фильм создан по мотивам одноименной повести Николая Васильевича Гоголя. Середина XVI века. Великое Польское королевство вступило в золотую пору расцвета своего могущества. Огнем и мечом польская шляхта покоряет украинскую землю, повсюду насаждая свои порядки. Земли захватывались вместе с людьми, вольных крестьян прикрепляли к земле. Сюда, в низовье Днепра, стекались все, кто не желал ходить в польских холопах. Очень скоро Запорожье стало центром казацкой вольницы и головной болью великой империи. Вчерашние рабы, разбойники, становились здесь хозяевами судьбы всего своего народа. ...Было у старого казака Бульбы два сына, гордость отца и запорожского казачества - младший Андрий и старший Остап. В боях под стенами Дубны не было их лучше. Но один предпочел выбрать себе другую судьбу - отречься от отца, брата и Родины ради прекрасной польской панночки. Другой остался свободным казаком, но был схвачен поляками и публично казнен. Не осталось больше сыновей у старого Тараса. Осталось только одно желание - отомстить...

Файл
Качество: BDRip (AVC)
Видео: MPEG-4 AVC, 3500 Кбит/с, 1024x436, 23.976 кадр/с
Аудио: AC3, 6 ch, 448 Кбит/с
Размер: 3.62 ГБ
Продолжительность: 02:11:16
Язык: Русский
Субтитры: Украинские
За исходник, большое спасибо BLUEBIRD
Сохранены оригинальные чаптеры как на Blu-Ray.

Инфо-файл

x264 [info]: frame I:1423 Avg QP:15.99 size:107347
x264 [info]: frame P:45542 Avg QP:19.68 size: 36514
x264 [info]: frame B:141892 Avg QP:22.97 size: 11480
--------------------------------------------------------
Общее
Уникальный идентификатор : 180042141250001898858139438449569060817 (0x8772DAE863F74D6D8F3F220F5A0057D1)
Полное имя : D:ЗагрузкиTaras.Bulba.2009.x264.BDRip.(AVC).ExKinoRay.mkv
Формат : Matroska
Версия формата : Version 2
Размер файла : 3,62 Гбайт
Продолжительность : 2 ч. 11 м.
Общий поток : 3948 Кбит/сек
Название фильма : Тарас Бульба.2009.Rip by: ollan
Дата кодирования : UTC 2014-05-16 06:44:12
Программа кодирования : mkvmerge v5.6.0 ('Kenya Kane') built on May 27 2012 16:44:04
Библиотека кодирования : libebml v1.2.3 + libmatroska v1.3.0
Видео
Идентификатор : 1
Формат : AVC
Формат/Информация : Advanced Video Codec
Профиль формата : High@L4.1
Параметр CABAC формата : Да
Параметр ReFrames формата : 9 кадров
Идентификатор кодека : V_MPEG4/ISO/AVC
Продолжительность : 2 ч. 11 м.
Битрейт : 3500 Кбит/сек
Ширина : 1024 пикселя
Высота : 436 пикселей
Соотношение сторон : 2,35:1
Режим частоты кадров : Постоянный
Частота кадров : 23,976 кадра/сек
Цветовое пространство : YUV
Субдискретизация насыщенности : 4:2:0
Битовая глубина : 8 бит
Тип развёртки : Прогрессивная
Бит/(Пиксели*Кадры) : 0.327
Размер потока : 3,14 Гбайт (87%)
Библиотека кодирования : x264 core 125 r2200 999b753
Настройки программы : cabac=1 / ref=9 / deblock=1:-3:-3 / analyse=0x3:0x133 / me=umh / subme=11 / psy=1 / psy_rd=1.00:0.10 / mixed_ref=1 / me_range=32 / chroma_me=1 / trellis=2 / 8x8dct=1 / cqm=0 / deadzone=21,11 / fast_pskip=0 / chroma_qp_offset=-3 / threads=12 / lookahead_threads=2 / sliced_threads=0 / nr=0 / decimate=0 / interlaced=0 / bluray_compat=0 / constrained_intra=0 / bframes=9 / b_pyramid=2 / b_adapt=2 / b_bias=0 / direct=3 / weightb=1 / open_gop=0 / weightp=2 / keyint=240 / keyint_min=23 / scenecut=40 / intra_refresh=0 / rc_lookahead=40 / rc=2pass / mbtree=1 / bitrate=3500 / ratetol=1.0 / qcomp=0.60 / qpmin=0 / qpmax=69 / qpstep=4 / cplxblur=20.0 / qblur=0.5 / ip_ratio=1.40 / aq=1:1.00
Язык : Russian
Default : Да
Forced : Нет
Аудио
Идентификатор : 2
Формат : AC-3
Формат/Информация : Audio Coding 3
Расширение режима : CM (complete main)
Параметр Endianness формата : Big
Идентификатор кодека : A_AC3
Продолжительность : 2 ч. 11 м.
Вид битрейта : Постоянный
Битрейт : 448 Кбит/сек
Каналы : 6 каналов
Расположение каналов : Front: L C R, Side: L R, LFE
Частота : 48,0 КГц
Битовая глубина : 16 бит
Метод сжатия : С потерями
Размер потока : 421 Мбайт (11%)
Язык : Russian
Default : Да
Forced : Нет
Текст
Идентификатор : 3
Формат : UTF-8
Идентификатор кодека : S_TEXT/UTF8
Идентификатор кодека/Информация : UTF-8 Plain Text
Язык : Ukrainian
Default : Нет
Forced : Нет
Меню
00:00:00.000 : :Chapter 01
00:04:48.454 : :Chapter 02
00:12:08.394 : :Chapter 03
00:19:42.514 : :Chapter 04
00:24:37.476 : :Chapter 05
00:30:14.145 : :Chapter 06
00:35:36.676 : :Chapter 07
00:44:56.985 : :Chapter 08
00:54:19.589 : :Chapter 09
01:00:06.894 : :Chapter 10
01:05:10.364 : :Chapter 11
01:11:04.969 : :Chapter 12
01:17:57.798 : :Chapter 13
01:24:19.763 : :Chapter 14
01:28:15.915 : :Chapter 15
01:33:27.435 : :Chapter 16
01:41:48.102 : :Chapter 17
01:48:52.234 : :Chapter 18
01:54:38.997 : :Chapter 19
02:04:04.562 : :Chapter 20
02:11:16.827 : :Chapter 21

Скриншоты



[Профиль] [ЛС]
Кто просматривает тему:

Форум Тема Автор Размер
Разная литература Гусев Игорь, Тарас Денис, Шунков Виктор, Ядловский Андрей - Награды, знаки различия и униформа Великой Отечественной войны [2015, PDF] достали все 39 MB
Отечественные cериалы Дом на холодном ключе (Тарас Дударь) [2016 г., Детектив, мелодрама, SATRip] Pensioner 2.15 GB
Отечественная Классика Николай Васильевич Гоголь - Тарас Бульба [Мария Фаллах, 2014] Magnat 326 MB
Отечественные мультфильмы Ну, погоди! 18-й выпуск (Владимир Тарасов, Вячеслав Котеночкин) [1993, мультфильм, комедия, семейный, DVB] painkiller 288 MB
Фильмы 2009 года Самое главное / The Be All and End All (Брюс Уэбб / Bruce Webb) [2009, Великобритания, комедия, драма, DVDRip] (Тарас Котов) + Sub Rus + Original Eng reversefile 702 MB
Отечественные мультфильмы Сборник мультфильмов Владимира Тарасова - Полная коллекция (1972-2008) DVDRip достали все 3.72 GB
Отечественные мультфильмы Стадион шиворот-навыворот (Владимир Тарасов) [1976, Рисованный мультфильм, WEBRip] TorrentFilm 76 MB
Фильмы (HD DVD, Blu-ray и BDRemux) Тарас Бульба (2009) BDRemux от ExKinoRay Russian Mafia 18.97 GB
Показать сообщения:    

Текущее время: Сегодня 15:58

Часовой пояс: GMT



Вы не можете начинать темы
Вы не можете отвечать на сообщения
Вы не можете редактировать свои сообщения
Вы не можете удалять свои сообщения
Вы не можете голосовать в опросах
Вы не можете прикреплять файлы к сообщениям
Вы не можете скачивать файлы