Танцы насмерть (2017) BDRemux 1080p | iTunes

 
Автор Сообщение

BOSS ®

Пол:

Стаж: 3 года 1 месяц

Сообщений: 8254

Откуда: ODESSA



Награды: 22 (Подробнее)

Top Seeder 5 (Количество: 1) Mega Seeder 2 (Количество: 1) Mega Seeder 5 (Количество: 1)
Торрент-статистика

Создавать темы 09-Сен-2017 17:32

[Цитировать]

Информация о фильме
Название: Танцы насмерть
Год выхода: 2017
Жанр: фантастика
Режиссер: Андрей Волгин
В ролях: Иван Жвакин, Лукерья Ильяшенко, Никита Волков, Александр Тютин, Агния Дитковските, Денис Шведов, Ола Кейру, Евгений Михеев
О фильме:
Москва, 2070-е. Ядерная война и катаклизмы уничтожили цивилизацию. В закрытом бункере на высокотехнологичной арене проводится жестокий танцевальный турнир, в котором состязаются молодые герои. Механизм арены — непостижимый симбиоз современных технологий и древних жертвенных ритуалов. Арена выкачивает из проигравших танцоров энергию, необходимую для выживания всего города. Главный герой — парень с улиц по имени Костя — попадается во время полицейской облавы и становится участником турнира. Его приводят в закрытый бункер, где он знакомится с другими претендентами на победу. И влюбляется в одну из участниц шоу. Удастся ли герою выжить и спасти любимую девушку — или их жизни заберет арена?

Страна: Россия
Студия: Компания «Киноданц»
Продолжительность: 01:42:44
Перевод: не требуется (оригинал)
Файл
Кодек: MPEG4 Video (H264)
Качество: BDRemux 1080p [Источник: Tantsy.nasmert.-.Die.Taenze.des.Todes.2017.MULTi.COMPLETE.BLURAY-SharpHD]
Видео: AVC, 1920x1080 (16:9), 24.000 fps, 34.7 Mbps (0.696 bit/pixel)
Аудио #1: DTS MA / Core, 48.0 KHz, 6 ch, 4 087 Kbps / 1 510 Kbps, VBR (Russian)
Аудио #2: AC-3, 48.0 KHz, 6 ch, 640 Kbps, CBR (Russian)

Дополнительно

Дорожка АС3 получена декодированием HD-MA в соответствующий формат для универсальной поддержи blu-ray проигрывателей...

M/I

General
Complete name : Tantsy.nasmert.2017.BDRemux.1080p.NNMClub.mkv
Format : Matroska
Format version : Version 4 / Version 2
File size : 28.3 GiB
Duration : 1 h 42 min
Overall bit rate mode : Variable
Overall bit rate : 39.4 Mb/s
Encoded date : UTC 2017-09-09 08:22:32
Writing application : mkvmerge v15.0.0 ('Duel with the Devil') 64-bit
Writing library : libebml v1.3.5 + libmatroska v1.4.5
Video
ID : 1
Format : AVC
Format/Info : Advanced Video Codec
Format profile : High@L4.1
Format settings, CABAC : Yes
Format settings, RefFrames : 4 frames
Format settings, GOP : M=3, N=12
Codec ID : V_MPEG4/ISO/AVC
Duration : 1 h 42 min
Bit rate mode : Variable
Bit rate : 34.7 Mb/s
Maximum bit rate : 36.0 Mb/s
Width : 1 920 pixels
Height : 1 080 pixels
Display aspect ratio : 16:9
Frame rate mode : Constant
Frame rate : 24.000 FPS
Color space : YUV
Chroma subsampling : 4:2:0
Bit depth : 8 bits
Scan type : Progressive
Bits/(Pixel*Frame) : 0.696
Stream size : 24.9 GiB (88%)
Title : Tantsy nasmert (2017) NNMClub
Language : Russian
Default : Yes
Forced : No
Audio #1
ID : 2
Format : DTS
Format/Info : Digital Theater Systems
Format profile : MA / Core
Mode : 16
Format settings, Endianness : Big
Codec ID : A_DTS
Duration : 1 h 42 min
Bit rate mode : Variable / Constant
Bit rate : 4 087 kb/s / 1 509 kb/s
Channel(s) : 6 channels
Channel positions : Front: L C R, Side: L R, LFE
Sampling rate : 48.0 kHz
Frame rate : 93.750 FPS (512 SPF)
Bit depth : 24 bits
Compression mode : Lossless / Lossy
Stream size : 2.93 GiB (10%)
Language : Russian
Default : Yes
Forced : No
Audio #2
ID : 3
Format : AC-3
Format/Info : Audio Coding 3
Format settings, Endianness : Big
Codec ID : A_AC3
Duration : 1 h 42 min
Bit rate mode : Constant
Bit rate : 640 kb/s
Channel(s) : 6 channels
Channel positions : Front: L C R, Side: L R, LFE
Sampling rate : 48.0 kHz
Frame rate : 31.250 FPS (1536 SPF)
Bit depth : 16 bits
Compression mode : Lossy
Stream size : 470 MiB (2%)
Language : Russian
Service kind : Complete Main
Default : No
Forced : No
Menu
00:00:00.000 : en:00:00:00.000
00:02:39.833 : en:00:02:39.833
00:09:06.083 : en:00:09:06.083
00:13:57.833 : en:00:13:57.833
00:17:47.667 : en:00:17:47.667
00:22:20.333 : en:00:22:20.333
00:27:55.667 : en:00:27:55.667
00:34:55.833 : en:00:34:55.833
00:41:14.875 : en:00:41:14.875
00:46:42.917 : en:00:46:42.917
00:52:30.792 : en:00:52:30.792
00:57:02.750 : en:00:57:02.750
01:01:45.292 : en:01:01:45.292
01:08:18.583 : en:01:08:18.583
01:14:24.917 : en:01:14:24.917
01:19:34.125 : en:01:19:34.125
01:23:30.958 : en:01:23:30.958
01:27:08.583 : en:01:27:08.583
01:32:44.167 : en:01:32:44.167
01:39:00.000 : en:01:39:00.000

Скриншоты

[Профиль] [ЛС]
Кто просматривает тему:

Форум Тема Автор Размер
BBC BBC: Horizon. Танцы на грани тьмы - это конец физики? / Horizon. Dancing in the Dark - The End of Physics? (Peter Leonard) [2015 г., Документальный, научно-познавательный, SATRip] skorpionN 696 MB
BBC BBC: Танцы дикой природы / Nature's Greatest Dancers [серии 1-2 из 2] (Christina Nutter) [2015 г., Документальный, фауна, флора, HDTVRip 720p] skorpionN 2.52 GB
Dance, Club VA - Жаркие танцы. Громкий клубный Muzon (2015) MP3 BOSS 937 MB
Фильмы до 2000 года Грязные танцы / Dirty Dancing (Эмиль Ардолино) [1987 г., драма, мелодрама, музыка, BDRip-AVC] [MVO (СТС)] Bathory 745 MB
Зарубежные мультсериалы Звездные Войны: Повстанцы / Star Wars Rebels [02x01-21 из 21] (2015) WEB-DLRip 720p | LE-Production достали все 17.01 GB
Зарубежные мультсериалы Звёздные войны: Повстанцы / Star Wars Rebels [03x01-18 из 22] (2016) WEB-DLRip | LostFilm ZeNArD 3.93 GB
Зарубежные мультсериалы Звездные войны: Повстанцы / Star Wars Rebels [S01-02] (2014-2016) WEB-DLRip | LostFilm Russian Mafia 9.15 GB
Зарубежные мультсериалы Звёздные войны: Повстанцы / Star Wars Rebels [S01] (2014) WEB-DLRip | D достали все 3.66 GB
Показать сообщения:    

Текущее время: Сегодня 20:32

Часовой пояс: GMT



Вы не можете начинать темы
Вы не можете отвечать на сообщения
Вы не можете редактировать свои сообщения
Вы не можете удалять свои сообщения
Вы не можете голосовать в опросах
Вы не можете прикреплять файлы к сообщениям
Вы не можете скачивать файлы