Танцующий ниндзя / Dancing Ninja (Митчел Клебанофф / Mitchell Klebanoff, Келли Сэндфер / Kelly Sandefur) [2010, Южная Корея, Канада, США, боевик, комедия, DVDRip] MVO

 
Автор Сообщение

TorrentFilm ®

Пол:

Стаж: 2 года

Сообщений: 7741



Награды: Нет

Торрент-статистика

Создавать темы 19-Сен-2015 00:09

[Цитировать]

Танцующий ниндзя / Dancing Ninja- Страна: Южная Корея, Канада, США
Жанр: боевик, комедия
Год выпуска: 2010
Продолжительность: 01:32:59-Перевод: Профессиональный (многоголосый закадровый)
Cубтитры: нет-Режиссер: Митчел Клебанофф / Mitchell Klebanoff, Келли Сэндфер / Kelly Sandefur
В ролях: Лукас Грабил, Дэвид Хассельхофф, Джуди Джунг-хва Канг, Патрик Галлахер, Бри Тернер, Гари Хадсон, Джеймс Тсай, Лили Тьен, Энтони Шим-Описание: Белокурый мальчик-сирота Икки был усыновлен выходцами из Азии. Он попал в эту семью случайно еще тогда, когда был совсем малышом. Икки был уверен в том, что он – ниндзя, и при этом не обычный ниндзя, а легендарный Танцующий. Когда его любимый сенсей погибает от рук убийцы, Икки едет в Голливуд, чтобы разыскать своих родных родителей, а также найти убийцу сенсея.-Сэмпл-Качество видео: DVDRip
Формат видео: AVI
Видео: 720x400 (1.80:1), 25 fps, XviD build 47 ~1645 kbps avg, 0.23 bit/pixel
Аудио: 48 kHz, AC3 Dolby Digital, 3/2 (L,C,R,l,r) + LFE ch, ~448 kbps

MediaInfo

General
Complete name : E:\Downloads\Dancing.Ninja.DVDRip.avi
Format : AVI
Format/Info : Audio Video Interleave
File size : 1.37 GiB
Duration : 1h 32mn
Overall bit rate : 2 103 Kbps
Genre : Comedy
Writing application : VirtualDubMod 1.5.10.2 (build 2540/release)
Original source form/Name : Movie
Copyright : ELEKTRI4KA
Video
ID : 0
Format : MPEG-4 Visual
Format profile : Advanced Simple@L5
Format settings, BVOP : 2
Format settings, QPel : No
Format settings, GMC : No warppoints
Format settings, Matrix : Custom
Codec ID : XVID
Codec ID/Hint : XviD
Duration : 1h 32mn
Bit rate : 1 646 Kbps
Width : 720 pixels
Height : 400 pixels
Display aspect ratio : 16:9
Frame rate : 25.000 fps
Color space : YUV
Chroma subsampling : 4:2:0
Bit depth : 8 bits
Scan type : Progressive
Compression mode : Lossy
Bits/(Pixel*Frame) : 0.229
Stream size : 1.07 GiB (78%)
Writing library : XviD 1.2.0.dev47 (UTC 2006-11-01)
Audio
ID : 1
Format : AC-3
Format/Info : Audio Coding 3
Mode extension : CM (complete main)
Format settings, Endianness : Big
Codec ID : 2000
Duration : 1h 32mn
Bit rate mode : Constant
Bit rate : 448 Kbps
Channel(s) : 6 channels
Channel positions : Front: L C R, Side: L R, LFE
Sampling rate : 48.0 KHz
Bit depth : 16 bits
Compression mode : Lossy
Stream size : 298 MiB (21%)
Alignment : Split accross interleaves
Interleave, duration : 40 ms (1.00 video frame)
Interleave, preload duration : 500 ms

Скриншот c названием фильма

Скриншоты

[Профиль] [ЛС]

Создавать темы 12-Июн-2016 07:53 (спустя 8 месяцев 23 дня)

Топик был перенесен из форума Фильмы 2011 года в форум Фильмы 2010 года
Russian Mafia
 
Показать сообщения:    

Текущее время: Сегодня 00:22

Часовой пояс: GMT



Вы не можете начинать темы
Вы не можете отвечать на сообщения
Вы не можете редактировать свои сообщения
Вы не можете удалять свои сообщения
Вы не можете голосовать в опросах
Вы не можете прикреплять файлы к сообщениям
Вы не можете скачивать файлы