Танцующий в пустыне / Desert Dancer (2014) BDRip | D

 
Автор Сообщение

Russian Mafia ®

Пол:

Стаж: 1 год 8 месяцев

Сообщений: 4253



Награды: 10 (Подробнее)

Mega Seeder 4 (Количество: 1) Mega Seeder 2 (Количество: 1) Top Releaser 2 (Количество: 1)
Торрент-статистика

Создавать темы 17-Окт-2016 10:43

[Цитировать]

Танцующий в пустыне / Desert Dancer
Страна: Великобритания Россия
Производство: CrossDay Productions Ltd., Head Gear Films, Lip Sync Productions, Morocco Film Assistance
Год выпуска: 2014
Жанр: драма, биография
Продолжительность: 01:44:08
Режиссер: Ричард Рэймонд
Авторы сценария: Джон Крокер, Афшин Гаффариан
В ролях: Назанин Бониади, Фрида Пинто, Том Каллен, Рис Ричи, Саймон Кассианидес, Марама Корлетт, Акин Гази, Макрам Хури, Толга Сафер
Описание: Фильм основан на невероятной, но реальной истории борьбы иранского танцора Афшина Гаффариана за свободу самовыражения через танец в стране, где этот вид искусства находится вне закона. Используя YouTube в качестве учебника, главный герой вместе с друзьями создаёт подпольную танцевальную группу. В пустыне, вдали от глаз полиции, они устраивают секретное танцевальное шоу. Несмотря на все меры предосторожности, этот акт творчества, мужества и неповиновения влечёт за собой события, из-за которых жизнь Афшина оказывается в опасности. «Танцующий в пустыне» — это правдивая история о молодёжи, которая подвергает риску свою жизнь в борьбе за права человека и исполнение своей мечты...

Перевод: Профессиональный (полное дублирование) | Back Board Cinema / по заказу компании «LEEVANDIA»
Субтитры: нет-Качество: BDRip | исходник Танцующий в пустыне_2014_BDRemux.mkv от HDClub
Формат: AVI
Видео кодек: XviD
Аудио кодек: АС3
Видео: 720x304 (2.35:1), 23.976 fps, XviD build 73 ~1 811 kbps avg
Аудио: 48.0 kHz, AC3 Dolby Digital, 2/0 (L,R) ch, ~192 kbps
Дата премьеры (мир): 3 июля 2014
Дата премьеры (РФ): 4 февраля 2016, «Ливандия Энтертейнмент»

Media Info

Формат : AVI
Формат/Информация : Audio Video Interleave
Размер файла : 1,46 Гбайт
Продолжительность : 1 ч. 44 м.
Общий поток : 2012 Кбит/сек
Программа кодирования : VirtualDubMod 1.5.10.3 | (build 2550/release)
Библиотека кодирования : VirtualDubMod build 2550/release
Видео
Идентификатор : 0
Формат : MPEG-4 Visual
Профиль формата : Advanced Simple@L5
Параметр BVOP формата : 1
Параметр QPel формата : Нет
Параметр GMC формата : Без точки перехода
Параметр матрицы формата : Выборочная
Идентификатор кодека : XVID
Идентификатор кодека/Подсказка : XviD
Продолжительность : 1 ч. 44 м.
Битрейт : 1811 Кбит/сек
Ширина : 720 пикселей
Высота : 304 пикселя
Соотношение сторон : 2,35:1
Частота кадров : 23,976 (23976/1000) кадра/сек
Цветовое пространство : YUV
Субдискретизация насыщенности : 4:2:0
Битовая глубина : 8 бит
Тип развёртки : Прогрессивная
Метод сжатия : С потерями
Бит/(Пиксели*Кадры) : 0.345
Размер потока : 1,32 Гбайт (90%)
Библиотека кодирования : XviD 73
Аудио
Идентификатор : 1
Формат : AC-3
Формат/Информация : Audio Coding 3
Расширение режима : CM (complete main)
Параметр Endianness формата : Big
Идентификатор кодека : 2000
Продолжительность : 1 ч. 44 м.
Вид битрейта : Постоянный
Битрейт : 192 Кбит/сек
Каналы : 2 канала
Расположение каналов : Front: L R
Частота : 48,0 КГц
Частота кадров : 31,250 кадров/сек (1536 spf)
Метод сжатия : С потерями
Размер потока : 143 Мбайт (10%)
Выравнивание : Разделение по промежуткам
Продолжительность промежутка : 42 мс. (1,00 видеокадр)
Время предзагрузки промежутка : 500 мс.

Скриншоты

[Профиль] [ЛС]
Показать сообщения:    

Текущее время: Сегодня 08:34

Часовой пояс: GMT



Вы не можете начинать темы
Вы не можете отвечать на сообщения
Вы не можете редактировать свои сообщения
Вы не можете удалять свои сообщения
Вы не можете голосовать в опросах
Вы не можете прикреплять файлы к сообщениям
Вы не можете скачивать файлы