Танцующая в темноте / Dancer in the Dark (2000) BDRip 720p от NovaLan

 
Автор Сообщение

sergej644 ®

Пол:

Стаж: 4 года 11 месяцев

Сообщений: 6044

Откуда: Soviet Union



Награды: Нет

Торрент-статистика

Создавать темы 10-Фев-2015 09:11

[Цитировать]

Название: Танцующая в темноте
Оригинальное название: Dancer in the Dark
Год выхода: 2000
Жанр: Драма, мюзикл, криминал
Режиссер: Ларс фон Триер
В ролях: Бьорк, Катрин Денёв, Дэвид Морс, Петер Стормаре, Джоэл Грей, Кэра Сеймур, Владика Костич, Жан-Марк Барр, Винсент Пэтерсон, Шаван Фэллон, Желько Иванек, Удо Кир, Йенс Альбинус, Ретел Бин, Метте Берггреен, Ларс Майкл Динесен, Катрин Фалькенберг, Майкл Флессас, Джон Рэндольф Джонс, Ной Лазарус, Шелдон Литт, Эндрю Лукре, Джон Мартинес, Люк Рейли, Т.Дж. Риззо, Стеллан Скарсгард, Шон-Майкл Смит, Паприка Стеэн, Эрик Воге, Ник Вульф, Тимм Зиммерманн, Эл Агами, Алекс Моро, Александр Арли, Аллан Гилденкарне
О фильме:
Знаете ли Вы, что такое камера обскура? Это пропасть, обрывающая мир солнечного света и теней и ввергающая в царство мрачной, черной пустоты. Отчаяние, страх, недоумение и… надежда, ведь надежда, как известно, всегда умирает последней. Или вовсе не умирает… И музыка, звучащая отовсюду.

Страна: Дания, Швеция, США, Аргентина, Великобритания, Германия, Исландия, Испания, Италия, Нидерланды, Норвегия, Финляндия, Франция
Продолжительность: 02:20:17
Перевод: Дублированный / Профессиональный двухголосый
Кодек: H.264
Качество: BDRip 720p
Видео: MPEG-4 AVC, 5700 Кбит/с, 1280х552, 23.976 кадр/с
Звук: Русский (AC3, 6 ch, 448 Кбит/с), (AC3, 2 ch, 224 Кбит/с), английский (DTS, 6 ch, 1510 Кбит/с)
Субтитры: Русские, английские

Инфо-файл

Полное имя : E:Раздачи_EDancer.in.the.Dark.2000.x264.BDRip.720p.NovaLan.mkv
Формат : Matroska
Версия формата : Version 4 / Version 2
Размер файла : 7,73 Гбайт
Продолжительность : 2 ч. 20 м.
Общий поток : 7884 Кбит/сек
Название фильма : Dancer in the Dark 2000 - NovaLan
Дата кодирования : UTC 2014-10-01 12:04:19
Программа кодирования : mkvmerge v7.2.0 ('On Every Street') 64bit built on Sep 13 2014 15:52:10
Библиотека кодирования : libebml v1.3.0 + libmatroska v1.4.1
DURATION : 02:20:11.008000000
NUMBER_OF_FRAMES : 262844
NUMBER_OF_BYTES : 471016448
_STATISTICS_WRITING_APP : mkvmerge v7.2.0 ('On Every Street') 64bit built on Sep 13 2014 15:52:10
_STATISTICS_WRITING_DATE_UTC : 2014-10-01 12:04:19
_STATISTICS_TAGS : BPS DURATION NUMBER_OF_FRAMES NUMBER_OF_BYTES
Видео
Идентификатор : 1
Формат : AVC
Формат/Информация : Advanced Video Codec
Профиль формата : High@L4.1
Параметр CABAC формата : Да
Параметр ReFrames формата : 8 кадров
Идентификатор кодека : V_MPEG4/ISO/AVC
Продолжительность : 2 ч. 20 м.
Битрейт : 5700 Кбит/сек
Ширина : 1280 пикселей
Высота : 552 пикселя
Соотношение сторон : 2,35:1
Частота кадров : 23,976 кадра/сек
Цветовое пространство : YUV
Субдискретизация насыщенности : 4:2:0
Битовая глубина : 8 бит
Тип развёртки : Прогрессивная
Бит/(Пиксели*Кадры) : 0.336
Размер потока : 5,43 Гбайт (70%)
Заголовок : Sergei7721
Библиотека кодирования : x264 core 133 r2334 a3ac64b
Настройки программы : cabac=1 / ref=8 / deblock=1:-1:-1 / analyse=0x3:0x113 / me=umh / subme=11 / psy=1 / psy_rd=1.00:0.20 / mixed_ref=1 / me_range=32 / chroma_me=1 / trellis=2 / 8x8dct=1 / cqm=0 / deadzone=21,11 / fast_pskip=0 / chroma_qp_offset=-3 / threads=12 / lookahead_threads=1 / sliced_threads=0 / nr=0 / decimate=0 / interlaced=0 / bluray_compat=0 / constrained_intra=0 / bframes=6 / b_pyramid=2 / b_adapt=2 / b_bias=0 / direct=3 / weightb=1 / open_gop=0 / weightp=2 / keyint=240 / keyint_min=23 / scenecut=40 / intra_refresh=0 / rc_lookahead=40 / rc=2pass / mbtree=0 / bitrate=5700 / ratetol=1.0 / qcomp=0.60 / qpmin=0 / qpmax=69 / qpstep=4 / cplxblur=20.0 / qblur=0.5 / vbv_maxrate=50000 / vbv_bufsize=62500 / nal_hrd=none / ip_ratio=1.40 / pb_ratio=1.30 / aq=1:1.00
Default : Да
Forced : Нет
DURATION : 02:20:17.409000000
NUMBER_OF_FRAMES : 201816
NUMBER_OF_BYTES : 5997326944
_STATISTICS_WRITING_APP : mkvmerge v7.2.0 ('On Every Street') 64bit built on Sep 13 2014 15:52:10
_STATISTICS_WRITING_DATE_UTC : 2014-10-01 12:04:19
_STATISTICS_TAGS : BPS DURATION NUMBER_OF_FRAMES NUMBER_OF_BYTES
Аудио #1
Идентификатор : 2
Формат : AC-3
Формат/Информация : Audio Coding 3
Расширение режима : CM (complete main)
Параметр Endianness формата : Big
Идентификатор кодека : A_AC3
Продолжительность : 2 ч. 20 м.
Вид битрейта : Постоянный
Битрейт : 448 Кбит/сек
Каналы : 6 каналов
Расположение каналов : Front: L C R, Side: L R, LFE
Частота : 48,0 КГц
Битовая глубина : 16 бит
Метод сжатия : С потерями
Размер потока : 450 Мбайт (6%)
Язык : Russian
Default : Да
Forced : Нет
Аудио #2
Идентификатор : 3
Формат : AC-3
Формат/Информация : Audio Coding 3
Расширение режима : CM (complete main)
Параметр Endianness формата : Big
Идентификатор кодека : A_AC3
Продолжительность : 2 ч. 20 м.
Вид битрейта : Постоянный
Битрейт : 224 Кбит/сек
Каналы : 2 канала
Расположение каналов : Front: L R
Частота : 48,0 КГц
Битовая глубина : 16 бит
Метод сжатия : С потерями
Размер потока : 225 Мбайт (3%)
Язык : Russian
Default : Нет
Forced : Нет
Аудио #3
Идентификатор : 4
Формат : DTS
Формат/Информация : Digital Theater Systems
Идентификатор кодека : A_DTS
Продолжительность : 2 ч. 20 м.
Вид битрейта : Постоянный
Битрейт : 1510 Кбит/сек
Каналы : 6 каналов
Расположение каналов : Front: L C R, Side: L R, LFE
Частота : 48,0 КГц
Битовая глубина : 16 бит
Метод сжатия : С потерями
Размер потока : 1,48 Гбайт (19%)
Язык : English
Default : Нет
Forced : Нет
Текст #1
Идентификатор : 5
Формат : UTF-8
Идентификатор кодека : S_TEXT/UTF8
Идентификатор кодека/Информация : UTF-8 Plain Text
Язык : Russian
Default : Да
Forced : Да
Текст #2
Идентификатор : 6
Формат : UTF-8
Идентификатор кодека : S_TEXT/UTF8
Идентификатор кодека/Информация : UTF-8 Plain Text
Язык : Russian
Default : Нет
Forced : Нет
Текст #3
Идентификатор : 7
Формат : UTF-8
Идентификатор кодека : S_TEXT/UTF8
Идентификатор кодека/Информация : UTF-8 Plain Text
Язык : English
Default : Нет
Forced : Нет
Меню
00:00:00.000 : en:00:00:00.000
00:03:36.049 : en:00:03:36.049
00:07:59.646 : en:00:07:59.646
00:14:45.218 : en:00:14:45.218
00:19:33.672 : en:00:19:33.672
00:26:10.936 : en:00:26:10.936
00:33:20.832 : en:00:33:20.832
00:43:33.644 : en:00:43:33.644
00:47:33.851 : en:00:47:33.851
00:51:32.756 : en:00:51:32.756
00:54:10.247 : en:00:54:10.247
01:01:05.195 : en:01:01:05.195
01:12:04.654 : en:01:12:04.654
01:18:30.072 : en:01:18:30.072
01:24:29.731 : en:01:24:29.731
01:29:23.725 : en:01:29:23.725
01:38:07.248 : en:01:38:07.248
01:42:54.001 : en:01:42:54.001
01:49:02.870 : en:01:49:02.870
01:55:42.102 : en:01:55:42.102
01:59:31.998 : en:01:59:31.998
02:02:45.358 : en:02:02:45.358
02:09:14.580 : en:02:09:14.580
02:15:51.143 : en:02:15:51.143
02:20:16.407 : en:02:20:16.407
Релиз группы NovaLan
Автор релиза Sergei7721

Скриншоты

[Профиль] [ЛС]
Показать сообщения:    

Текущее время: Сегодня 14:25

Часовой пояс: GMT



Вы не можете начинать темы
Вы не можете отвечать на сообщения
Вы не можете редактировать свои сообщения
Вы не можете удалять свои сообщения
Вы не можете голосовать в опросах
Вы не можете прикреплять файлы к сообщениям
Вы не можете скачивать файлы