Танк / Tank (1984) WEB-DL 1080р | P2, A

 
Автор Сообщение

Swager ®

Пол:

Стаж: 2 года

Сообщений: 907



Награды: 3 (Подробнее)

Top Releaser 2 (Количество: 1) Mega Seeder 1 (Количество: 1) Mega Seeder 2 (Количество: 1)
Торрент-статистика

Создавать темы 06-Окт-2017 08:34

[Цитировать]

Информация о фильме
Название: Танк
Оригинальное название: Tank
Год выхода: 1984
Жанр: Боевик, комедия, драма
Режиссер: Марвин Дж. Чомски
В ролях: Джеймс Гарнер, Ширли Джонс, С. Томас Хауэлл, Марк Херриер, Сэнди Уорд, Дженили Харрисон, Джеймс Кромуэлл, Дориан Хэрвуд, Г.Д. Спрэдлин, Джон Хэнкок, Гай Бойд, Дэн Олбрайт, Джералд А. Аткинс, Рон Баскин, Кейт Джером Браун
О фильме:
Сержант Зак Карей не терпел несправедливости. Именно поэтому он ударил полицейского, который грубо обошелся с проституткой Сарой. Местный шериф решил проучить Зака и состряпал ложное обвинение в отношении его сына Билли. После того, как сына посадили за решетку за преступление, которого тот не совершал, американский сержант решает взять дело в свои руки. Зак попадает в заголовки всех газет, когда освобождая Билли, вместе с Сарой отправляется к шерифу на собственном танке.

Страна: США
Студия: Universal Productions, Lorimar Film Entertainment
Продолжительность: 01:53:00
Перевод: Профессиональный двухголосый, профессиональный одноголосый (Михалёв, Володарский)
Файл
Кодек: MPEG-4 AVC
Качество: WEB-DL 1080р | Amazon
Видео: MPEG-4 AVC, 13,3 Мбит/с, 1920x1080
Звук:
Аудио 1: AC3, 2 ch, 224 kbps, CBR - Русский (DVO)
Аудио 2: AC3, 2 ch, 192 kbps, CBR - Русский (А. Михалёв)
Аудио 3: AC3, 2 ch, 192 kbps, CBR - Русский (Володарский)
Аудио 4: AC3, 2 ch, 224 kbps, CBR - Английский
Субтитры: Английские (SDH)

Mediainfo

Общее
Уникальный идентификатор : 223093978672255866617533418260961636879 (0xA7D6565F6FA0B3109C5E8E7D7197320F)
Полное имя : Tank.1984.WEB-DL.1080p.mkv
Формат : Matroska
Версия формата : Version 4 / Version 2
Размер файла : 11,2 Гбайт
Продолжительность : 1 ч. 53 м.
Режим общего битрейта : Переменный
Общий поток : 14,2 Мбит/сек
Дата кодирования : UTC 2017-10-05 19:30:57
Программа кодирования : mkvmerge v15.0.0 ('Duel with the Devil') 64-bit
Библиотека кодирования : libebml v1.3.5 + libmatroska v1.4.5
Видео
Идентификатор : 1
Формат : AVC
Формат/Информация : Advanced Video Codec
Профиль формата : High@L4
Настройки формата : CABAC / 4 Ref Frames
Параметр CABAC формата : Да
Параметр RefFrames формата : 4 кадра
Идентификатор кодека : V_MPEG4/ISO/AVC
Продолжительность : 1 ч. 53 м.
Вид битрейта : Переменный
Битрейт : 13,3 Мбит/сек
Максимальный битрейт : 15,0 Мбит/сек
Ширина : 1920 пикселей
Высота : 1080 пикселей
Соотношение сторон : 16:9
Режим частоты кадров : Постоянный
Частота кадров : 23,976 (24000/1001) кадра/сек
Цветовое пространство : YUV
Субдискретизация насыщенности : 4:2:0
Битовая глубина : 8 бит
Тип развёртки : Прогрессивная
Бит/(Пиксели*Кадры) : 0.268
Размер потока : 10,5 Гбайт (94%)
Default : Да
Forced : Нет
Цветовой диапазон : Limited
Основные цвета : BT.709
Характеристики трансфера : BT.709
Коэффициенты матрицы : BT.709
Аудио #1
Идентификатор : 2
Формат : AC-3
Формат/Информация : Audio Coding 3
Параметр Endianness формата : Big
Идентификатор кодека : A_AC3
Продолжительность : 1 ч. 53 м.
Вид битрейта : Постоянный
Битрейт : 224 Кбит/сек
Каналы : 2 канала
Расположение каналов : Front: L R
Частота : 48,0 КГц
Частота кадров : 31,250 кадров/сек (1536 SPF)
Битовая глубина : 16 бит
Метод сжатия : С потерями
Размер потока : 181 Мбайт (2%)
Заголовок : DVO
Язык : Russian
ServiceKind : Complete Main
Default : Да
Forced : Нет
Аудио #2
Идентификатор : 3
Формат : AC-3
Формат/Информация : Audio Coding 3
Параметр Endianness формата : Big
Идентификатор кодека : A_AC3
Продолжительность : 1 ч. 53 м.
Вид битрейта : Постоянный
Битрейт : 192 Кбит/сек
Каналы : 2 канала
Расположение каналов : Front: L R
Частота : 48,0 КГц
Частота кадров : 31,250 кадров/сек (1536 SPF)
Битовая глубина : 16 бит
Метод сжатия : С потерями
Размер потока : 155 Мбайт (1%)
Заголовок : Михалев
Язык : Russian
ServiceKind : Complete Main
Default : Нет
Forced : Нет
Аудио #3
Идентификатор : 4
Формат : AC-3
Формат/Информация : Audio Coding 3
Параметр Endianness формата : Big
Идентификатор кодека : A_AC3
Продолжительность : 1 ч. 53 м.
Вид битрейта : Постоянный
Битрейт : 192 Кбит/сек
Каналы : 2 канала
Расположение каналов : Front: L R
Частота : 48,0 КГц
Частота кадров : 31,250 кадров/сек (1536 SPF)
Битовая глубина : 16 бит
Метод сжатия : С потерями
Размер потока : 155 Мбайт (1%)
Заголовок : Володарсий
Язык : Russian
ServiceKind : Complete Main
Default : Нет
Forced : Нет
Аудио #4
Идентификатор : 5
Формат : E-AC-3
Формат/Информация : Enhanced Audio Coding 3
Параметр Endianness формата : Big
Идентификатор кодека : A_EAC3
Продолжительность : 1 ч. 53 м.
Вид битрейта : Постоянный
Битрейт : 224 Кбит/сек
Каналы : 2 канала
Расположение каналов : Front: L R
Частота : 48,0 КГц
Частота кадров : 187,500 кадров/сек (256 SPF)
Метод сжатия : С потерями
Задержка видео : 16 мс.
Размер потока : 181 Мбайт (2%)
Язык : English
ServiceKind : Complete Main
Default : Нет
Forced : Нет
Текст
Идентификатор : 6
Формат : UTF-8
Идентификатор кодека : S_TEXT/UTF8
Идентификатор кодека/Информация : UTF-8 Plain Text
Продолжительность : 1 ч. 47 м.
Битрейт : 48 бит/сек
ElementCount : 1322
Размер потока : 38,2 Кбайт (0%)
Язык : English
Default : Нет
Forced : Нет

Скриншоты

[Профиль] [ЛС]
Кто просматривает тему:

Форум Тема Автор Размер
Классика зарубежного кино Танк / Tank (1984) WEB-DLRip | P2 BOSS 1.45 GB
Показать сообщения:    

Текущее время: Сегодня 14:30

Часовой пояс: GMT



Вы не можете начинать темы
Вы не можете отвечать на сообщения
Вы не можете редактировать свои сообщения
Вы не можете удалять свои сообщения
Вы не можете голосовать в опросах
Вы не можете прикреплять файлы к сообщениям
Вы не можете скачивать файлы