Танец реальности / La danza de la realidad / The Dance of Reality (2013) BDRip 720p от Сinemania | Чистый Звук

 
Автор Сообщение

sergej644 ®

Пол:

Стаж: 4 года 11 месяцев

Сообщений: 6042

Откуда: Soviet Union



Награды: Нет

Торрент-статистика

Создавать темы 11-Фев-2015 06:51

[Цитировать]

Информация о фильме
Название: Танец реальности
Оригинальное название: La danza de la realidad / The Dance of Reality
Год выхода: 2013
Жанр: Фэнтези, драма, биография
Режиссер: Алехандро Ходоровски
В ролях: Бронтис Ходоровски, Памела Флорес, Хермас Хершкович, Алехандро Ходоровски, Бастиан Боденхофер, Адан Ходоровски, Аксель Ходоровски, Андрес Кокс, Алисарине Дуколомб, Франциско Писарро Саенз де Уртури
О фильме:
Алехандро Ходоровский прославился не только своими сюрреалистичными фильмами, часто повергающими зрителей в настоящий шок, но и разработке собственной теории психомагии. Эта методика психологической терапии направлена на избавление от различных психических травм, которые человек получает в первые годы своей жизни. При её разработке Алехандро опирался на собственные воспоминания о детстве.

Официальный сайт
Выпущено: Чили, Франция / Caméra One, Le Soleil Films
Продолжительность: 02:12:29
Перевод: Профессиональное (многоголосое) [Чистый Звук]
Файл
Формат: MKV
Качество: BDRip 720p
Видео: MPEG-4 AVC, 4387 Кбит/с, 1280x688
Аудио: Русский (AC3, 2 ch, 192 Кбит/с), испанский (DTS, 6 chю 1510 Кбит/с)
Субтитры: Английские
Семпл

Ограничение:

12+ зрителям, достигшим 12 лет

Media Info:


Общее
Уникальный идентификатор : 194274155844892531056571222490871534479 (0x9227D7670DB890CBB16FA90037DC938F)
Полное имя : F:Раздача HDThe.Dance.Of.Reality.2013.Blu.Ray.720p.CINEMANIA.mkv
Формат : Matroska
Версия формата : Version 4 / Version 2
Размер файла : 5,64 Гбайт
Продолжительность : 2 ч. 12 м.
Общий поток : 6089 Кбит/сек
Название фильма : Release Group CINEMANIA
Дата кодирования : UTC 2014-10-23 07:40:48
Программа кодирования : mkvmerge v7.2.0 ('On Every Street') 64bit built on Sep 13 2014 15:52:10
Библиотека кодирования : libebml v1.3.0 + libmatroska v1.4.1
Видео
Идентификатор : 1
Формат : AVC
Формат/Информация : Advanced Video Codec
Профиль формата : High@L4.1
Параметр CABAC формата : Да
Параметр ReFrames формата : 5 кадров
Идентификатор кодека : V_MPEG4/ISO/AVC
Продолжительность : 2 ч. 12 м.
Битрейт : 4387 Кбит/сек
Ширина : 1280 пикселей
Высота : 688 пикселей
Соотношение сторон : 1,85:1
Режим частоты кадров : Постоянный
Частота кадров : 23,976 кадра/сек
Цветовое пространство : YUV
Субдискретизация насыщенности : 4:2:0
Битовая глубина : 8 бит
Тип развёртки : Прогрессивная
Бит/(Пиксели*Кадры) : 0.208
Размер потока : 3,95 Гбайт (70%)
Заголовок : Release Group CINEMANIA
Библиотека кодирования : x264 core 142 r2479 dd79a61
Настройки программы : cabac=1 / ref=5 / deblock=1:-3:-3 / analyse=0x3:0x113 / me=umh / subme=8 / psy=1 / psy_rd=1.00:0.00 / mixed_ref=1 / me_range=16 / chroma_me=1 / trellis=1 / 8x8dct=1 / cqm=0 / deadzone=21,11 / fast_pskip=1 / chroma_qp_offset=-2 / threads=12 / lookahead_threads=2 / sliced_threads=0 / nr=0 / decimate=1 / interlaced=0 / bluray_compat=0 / constrained_intra=0 / bframes=3 / b_pyramid=2 / b_adapt=2 / b_bias=0 / direct=3 / weightb=1 / open_gop=0 / weightp=2 / keyint=240 / keyint_min=24 / scenecut=40 / intra_refresh=0 / rc_lookahead=50 / rc=2pass / mbtree=1 / bitrate=4387 / ratetol=1.0 / qcomp=0.60 / qpmin=0 / qpmax=69 / qpstep=4 / cplxblur=20.0 / qblur=0.5 / ip_ratio=1.40 / aq=1:1.00
Язык : English
Default : Да
Forced : Нет
Аудио #1
Идентификатор : 2
Формат : AC-3
Формат/Информация : Audio Coding 3
Расширение режима : CM (complete main)
Параметр Endianness формата : Big
Идентификатор кодека : A_AC3
Продолжительность : 2 ч. 12 м.
Вид битрейта : Постоянный
Битрейт : 192 Кбит/сек
Каналы : 2 канала
Расположение каналов : Front: L R
Частота : 48,0 КГц
Битовая глубина : 16 бит
Метод сжатия : С потерями
Размер потока : 182 Мбайт (3%)
Заголовок : Чистый звук
Язык : Russian
Default : Да
Forced : Да
Аудио #2
Идентификатор : 3
Формат : DTS
Формат/Информация : Digital Theater Systems
Режим : 16
Параметр Endianness формата : Big
Идентификатор кодека : A_DTS
Продолжительность : 2 ч. 12 м.
Вид битрейта : Постоянный
Битрейт : 1509 Кбит/сек
Каналы : 6 каналов
Расположение каналов : Front: L C R, Side: L R, LFE
Частота : 48,0 КГц
Битовая глубина : 24 бит
Метод сжатия : С потерями
Размер потока : 1,40 Гбайт (25%)
Язык : Spanish
Default : Нет
Forced : Нет
Текст #1
Идентификатор : 4
Формат : UTF-8
Идентификатор кодека : S_TEXT/UTF8
Идентификатор кодека/Информация : UTF-8 Plain Text
Язык : Russian
Default : Да
Forced : Да
Текст #2
Идентификатор : 5
Формат : UTF-8
Идентификатор кодека : S_TEXT/UTF8
Идентификатор кодека/Информация : UTF-8 Plain Text
Язык : English
Default : Нет
Forced : Нет
Меню
00:00:00.000 : en:00:00:00.000
00:09:02.667 : en:00:09:02.667
00:18:09.797 : en:00:18:09.797
00:24:59.248 : en:00:24:59.248
00:36:43.701 : en:00:36:43.701
00:43:50.586 : en:00:43:50.586
00:50:45.251 : en:00:50:45.251
01:01:27.100 : en:01:01:27.100
01:11:09.640 : en:01:11:09.640
01:18:03.220 : en:01:18:03.220
01:25:10.689 : en:01:25:10.689
01:34:21.614 : en:01:34:21.614
01:42:23.804 : en:01:42:23.804
01:52:21.360 : en:01:52:21.360
01:59:04.471 : en:01:59:04.471
02:07:57.628 : en:02:07:57.628

Скриншоты

[Профиль] [ЛС]
Показать сообщения:    

Текущее время: Сегодня 22:10

Часовой пояс: GMT



Вы не можете начинать темы
Вы не можете отвечать на сообщения
Вы не можете редактировать свои сообщения
Вы не можете удалять свои сообщения
Вы не можете голосовать в опросах
Вы не можете прикреплять файлы к сообщениям
Вы не можете скачивать файлы