Танго мотылька (Игорь Мужжухин) [2015, Россия, мелодрама, HDTV 1080i]

 
Автор Сообщение

TorrentFilm ®

Пол:

Стаж: 2 года

Сообщений: 7741



Награды: Нет

Торрент-статистика

Создавать темы 17-Янв-2016 00:08

[Цитировать]

Танго мотылька
Жанр: мелодрама
Год выпуска: 2015
Продолжительность: 01:29:12
Режиссёр: Игорь Мужжухин
В ролях: Дарья Щербакова, Сергей Мухин, Анастасия Асеева, Дмитрий Куличков, Павел Кузьмин, Николай Лунин (II), Анна Швол, Руслан Джайбеков, Алла Подчуфарова, Светлана Йозефий, Сергей Карякин, Александр Алёшкин
Описание: Еще вчера Аня была счастливой женой, ожидающей рождения малыша. Но семейная идиллия на поверку оказалась фальшивой и рухнула в один момент. Муж вероломно бросает Аню и уходит к другой, и это предательство становится лишь началом черной полосы. Тут же на Аню обрушивается и другая беда — девушка теряет ребенка.
Но и на этом злоключения Ани не заканчиваются. Новые соседи начинают вытравливать девушку из коммуналки и не гнушаются никакими средствами, чтобы получить ее комнату. Жизнь Ани превращается в ад, весь мир, кажется, ополчился на нее… Удастся ли девушке найти того, кто сможет защитить ее, и, наконец, прогнать страшный сон о мотыльке, сгорающем в огне?

Сэмпл: http://multi-up.com/1080295
Качество видео: HDTV 1080i
Формат видео: TS
Видео: AVC, 1920x1080, (16:9), 25 fps, 6 532 Kbps
Аудио: MP2, 48 kHz; 2 ch; 192 kbps

MediaInfo

General
ID : 1 (0x1)
Complete name : C:\Танго мотылька.ts
Format : MPEG-TS
File size : 4.44 GiB
Duration : 1h 29mn
Overall bit rate mode : Variable
Overall bit rate : 7 075 Kbps
Video
ID : 306 (0x132)
Menu ID : 20106 (0x4E8A)
Format : AVC
Format/Info : Advanced Video Codec
Format profile : Main@L4
Format settings, CABAC : Yes
Format settings, ReFrames : 4 frames
Format settings, GOP : M=4, N=28
Codec ID : 27
Duration : 1h 29mn
Bit rate : 6 532 Kbps
Width : 1 920 pixels
Height : 1 080 pixels
Display aspect ratio : 16:9
Frame rate : 25.000 fps
Standard : Component
Color space : YUV
Chroma subsampling : 4:2:0
Bit depth : 8 bits
Scan type : Interlaced
Scan type, store method : Separated fields
Scan order : Top Field First
Bits/(Pixel*Frame) : 0.126
Stream size : 4.10 GiB (92%)
Color range : Limited
Color primaries : BT.709
Transfer characteristics : BT.709
Matrix coefficients : BT.709
Audio
ID : 406 (0x196)
Menu ID : 20106 (0x4E8A)
Format : MPEG Audio
Format version : Version 1
Format profile : Layer 2
Codec ID : 3
Duration : 1h 29mn
Bit rate mode : Constant
Bit rate : 192 Kbps
Channel(s) : 2 channels
Sampling rate : 48.0 KHz
Compression mode : Lossy
Delay relative to video : -40ms
Stream size : 123 MiB (3%)
Language : English

Скриншот c названием фильма

Скриншоты

[Профиль] [ЛС]
Показать сообщения:    

Текущее время: Сегодня 02:23

Часовой пояс: GMT



Вы не можете начинать темы
Вы не можете отвечать на сообщения
Вы не можете редактировать свои сообщения
Вы не можете удалять свои сообщения
Вы не можете голосовать в опросах
Вы не можете прикреплять файлы к сообщениям
Вы не можете скачивать файлы