Там, где нас нет (Леонид Квинихидзе) [1986, Мелодрама, VHSRip]

 
Автор Сообщение

reversefile ®

Пол:

Стаж: 4 года 5 месяцев

Сообщений: 842

Откуда: ReverseFile.org



Награды: Нет

Торрент-статистика

Создавать темы 25-Июл-2014 01:16

[Цитировать]

Там, где нас нет
Жанр: Мелодрама
Год выпуска: 1986
Продолжительность: 01:29:08

Режиссёр: Леонид Квинихидзе
В ролях: Евгения Захарова, Гуннар Грапс, Святослав Кузнецов, Владимир Заманский, Людмила Максакова, Светлана Коновалова, Виктор Шульгин, Гунар Кильгас, Пауль Кальде, Алис Тальвик, Юрий Филинов, Виктор Лазарев
Описание: Приехав с отцом-профессором в Таллин, балерина Наташа влюбляется в руководителя рок-ансамбля Энна Лайда - и проводит с ним три дня. Уехав в Ленинград, чтобы продолжить работу над главной ролью в балете "Ромео и Джульетта", Наташа начинает тосковать по возлюбленному и зовет его к себе...

Доп. информация: КИНО-ТЕАТР.ru Автор музыки к кинофильму - Максим Дунаевский, производство - киностудия "Мосфильм".
Благодарность за рип: and70311448


Качество видео: VHSRip
Формат видео: AVI
Видео: Xvid 704x384 25fps 2058 kbps
Аудио: MP3 48000Hz stereo 128kbps

MediaInfo

Complete name : Tam.Gde.Nas.Net.1986.Xvid.VHSrip.fenixclub.avi
Format : AVI
Format/Info : Audio Video Interleave
File size : 1.37 GiB
Duration : 1h 29mn
Overall bit rate : 2 196 Kbps
Writing application : VirtualDubMod 1.5.10.2 (build 2540/release)
Writing library : VirtualDubMod build 2540/release
Video
ID : 0
Format : MPEG-4 Visual
Format profile : Advanced Simple@L5
Format settings, BVOP : Yes
Format settings, QPel : No
Format settings, GMC : No warppoints
Format settings, Matrix : Custom
Codec ID : XVID
Codec ID/Hint : XviD
Duration : 1h 29mn
Bit rate : 2 058 Kbps
Width : 704 pixels
Height : 384 pixels
Display aspect ratio : 1.85:1
Frame rate : 25.000 fps
Color space : YUV
Chroma subsampling : 4:2:0
Bit depth : 8 bits
Scan type : Progressive
Compression mode : Lossy
Bits/(Pixel*Frame) : 0.305
Stream size : 1.28 GiB (94%)
Writing library : XviD 1.2.1 (UTC 2008-12-04)
Audio
ID : 1
Format : MPEG Audio
Format version : Version 1
Format profile : Layer 3
Mode : Joint stereo
Mode extension : MS Stereo
Codec ID : 55
Codec ID/Hint : MP3
Duration : 1h 29mn
Bit rate mode : Constant
Bit rate : 128 Kbps
Channel(s) : 2 channels
Sampling rate : 48.0 KHz
Compression mode : Lossy
Stream size : 81.6 MiB (6%)
Alignment : Aligned on interleaves
Interleave, duration : 40 ms (1.00 video frame)
Interleave, preload duration : 504 ms

Скриншоты




[Профиль] [ЛС]

Создавать темы 06-Авг-2015 22:06 (спустя 1 год)

Топик был перенесен из форума Кино СССР в форум Кино СССР
sergej644
 
Показать сообщения:    

Текущее время: Сегодня 03:24

Часовой пояс: GMT



Вы не можете начинать темы
Вы не можете отвечать на сообщения
Вы не можете редактировать свои сообщения
Вы не можете удалять свои сообщения
Вы не можете голосовать в опросах
Вы не можете прикреплять файлы к сообщениям
Вы не можете скачивать файлы