Так устроена жизнь / Мир, созданный без изъяна / The world made straight (Дэвид Буррис / David Burris) [2015, США, драма, DVDRip] + Sub Rus + Original Eng

 
Автор Сообщение

TorrentFilm ®

Пол:

Стаж: 2 года

Сообщений: 7741



Награды: Нет

Торрент-статистика

Создавать темы 18-Янв-2015 00:00

[Цитировать]

Так устроена жизнь / Мир, созданный без изъяна / The world made straight
Страна: США
Жанр: драма
Год выпуска: 2015
Продолжительность: 01:59:22
Перевод: Субтитры (М. Васильев)
Cубтитры: русские
Оригинальная аудиодорожка: английский
Режиссер: Дэвид Буррис / David Burris
В ролях: Ноа Уайли, Джереми Ирвин, Минка Келли, Стив Эрл, Эдэлейд Клеменс
Описание: 1970-е годы, американское захолустье. Городок в горах Аппалачи в Северной Каролине. Трэвис Шелтон бросил учебу, слоняется без дела и пытается найти какой-нибудь смысл в своем существовании... Судьба сводит его с отшельником Леонардом, вся жизнь которого - сплошная тайна. Он проводит время за чтением книг и прослушиванием классической музыки, а деньги зарабатывает торговлей дурью. Компанию ему составляет девица с туманным прошлым.
Эта встреча будет иметь далеко идущие последствия для многих обитателей города...
Доп. информация:

Экранизация книги Рона Раша (номинация на премию О´Генри и премию Фолкнера в категории "лучший роман").
Критики, хотя для приличия ткнули в некоторые сюжетные нестыковки, в целом остались довольны и радовались, что "еще одной жемчужиной южной готики" стало больше.
В основе фильма лежат два идеологических момента, очень важных для американского самосознания.
Во-первых, идея "достигнуть чего-то", "стать кем-то". Старая как мир, но не устаревающая американская мечта: уехать из маленького города и стать большим человеком.
Во-вторых: изучение своих корней, истории своего рода. Осознание факта, что "я не на пустом месте возник, у меня великие предки". В Америке - стране эмигрантов, эта идея нашла весьма благодатную почву.
Сюжетная линия выстраивается вокруг так называемой "Резни в Шелтон Лорэл" - события января 1863 года, когда во время Гражданской Войны между Севером и Югом, отряд южан жестоко убил группу местных жителей в округе Мэдисон (Северная Каролина), которых заподозрили в симпатиях к Северу. 3 женщины были забиты насмерть, 10 мужчин и 3 детей были расстреляны.
История эта по сей день активно обсуждается и многим не дает покоя. В США существует "Общество потомков жертв Резни в Шелтон Лорэл", место массового убийства имеет статут военного мемориала.
NB:
главный герой ходит в майке с изображением флага Конфедерации (южные рабовладельческие штаты)
в фильме показано, что герои спокойно гуляют по территории, где произошло массовое убийство, но в реальности доступ на это поле был закрыт еще в 1950-х годах.
Сэмпл
Качество видео: DVDRip
Формат видео: AVI
Видео: 1457 Kbps, 720x304 (2.35:1), 23 976 fps, MPEG 4 XviD
Аудио: 384 Kbps, 48.0 KHz, 16 bits 2 ch, AC3
Формат субтитров: softsub (SRT)

MediaInfo

General
Complete name : C:\Users\Владелец\Desktop\The.World.Made.Straight.2015.HDRip.XviD.AC3-EVO.avi
Format : AVI
Format/Info : Audio Video Interleave
File size : 1.54 GiB
Duration : 1h 59mn
Overall bit rate : 1 850 Kbps
Video
ID : 0
Format : MPEG-4 Visual
Format profile : Advanced Simple@L5
Format settings, BVOP : 2
Format settings, QPel : No
Format settings, GMC : No warppoints
Format settings, Matrix : Default (H.263)
Codec ID : XVID
Codec ID/Hint : XviD
Duration : 1h 59mn
Bit rate : 1 457 Kbps
Width : 720 pixels
Height : 304 pixels
Display aspect ratio : 2.35:1
Frame rate : 23.976 fps
Color space : YUV
Chroma subsampling : 4:2:0
Bit depth : 8 bits
Scan type : Progressive
Compression mode : Lossy
Bits/(Pixel*Frame) : 0.278
Stream size : 1.21 GiB (79%)
Writing library : XviD 64
Audio
ID : 1
Format : AC-3
Format/Info : Audio Coding 3
Mode extension : CM (complete main)
Format settings, Endianness : Big
Codec ID : 2000
Duration : 1h 59mn
Bit rate mode : Constant
Bit rate : 384 Kbps
Channel(s) : 2 channels
Channel positions : Front: L R
Sampling rate : 48.0 KHz
Bit depth : 16 bits
Compression mode : Lossy
Stream size : 328 MiB (21%)
Alignment : Aligned on interleaves
Interleave, duration : 42 ms (1.00 video frame)
Interleave, preload duration : 512 ms

Скриншот c названием фильма

Скриншоты







Титры

60
00:09:42,915 --> 00:09:44,482
Ладно.
61
00:09:56,162 --> 00:09:58,262
Тащи туда,
на грядку
62
00:09:58,831 --> 00:10:00,564
с помидорами.
63
00:10:03,836 --> 00:10:07,872
Как насчет обмыть сделку?
64
00:10:10,010 --> 00:10:12,576
Пиво в холодильнике.
65
00:10:30,663 --> 00:10:32,463
Покажи пистолет.
66
00:10:34,300 --> 00:10:37,468
Вот это крутая штука.
67
00:10:38,404 --> 00:10:42,473
Леонард - мастер, он с 60 метров
цыпленку в глаз попадет.
68
00:10:43,943 --> 00:10:46,980
Дай Трэвису потрогать
эту красавицу.
69
00:10:47,080 --> 00:10:48,413
Обойдется.
70
00:10:55,955 --> 00:10:59,593
- Это что?
- Металлоискатель.
71
00:10:59,693 --> 00:11:03,494
Парень пришел за дурью,
денег не было, обменял его.
72
00:11:04,330 --> 00:11:06,564
Удобно для поиска
трофеев Гражданской Войны.
73
00:11:07,933 --> 00:11:10,000
Что за музон?
74
00:11:10,536 --> 00:11:13,006
Копленд, "Весна в горах Аппалачи".
75
00:11:13,306 --> 00:11:16,307
- Не знаю такого.
- Он был на разогреве у "Скинэрд".
76
00:11:20,446 --> 00:11:22,513
Это дерьмо.
77
00:11:23,282 --> 00:11:25,653
- Не думаю.
- А я думаю.
78
00:11:25,767 --> 00:11:30,621
Возможно, ты просто не можешь
оценить его видение этого места.
79
00:11:31,387 --> 00:11:32,335
Чего?
80
00:11:33,826 --> 00:11:36,360
В этих хоромах
есть сортир?
81
00:11:47,173 --> 00:11:49,508
Какой же ты дебил...
82
00:11:49,608 --> 00:11:51,075
Да я знаю.
83
00:11:54,046 --> 00:11:56,514
Ноги убрал со стола.
[Профиль] [ЛС]
Кто просматривает тему:

Показать сообщения:    

Текущее время: Сегодня 18:56

Часовой пояс: GMT



Вы не можете начинать темы
Вы не можете отвечать на сообщения
Вы не можете редактировать свои сообщения
Вы не можете удалять свои сообщения
Вы не можете голосовать в опросах
Вы не можете прикреплять файлы к сообщениям
Вы не можете скачивать файлы