Такси 4 / Taxi 4 (2007) BDRip 1080p | D, P2, A | Theatrical cut

 
Автор Сообщение

sergej644 ®

Пол:

Стаж: 4 года 11 месяцев

Сообщений: 6045

Откуда: Soviet Union



Награды: Нет

Торрент-статистика

Создавать темы 31-Окт-2014 11:30

[Цитировать]

Информация о фильме
Название: Такси 4
Оригинальное: Taxi 4
Год выхода: 2007
Выпущено: Europa Corp
Страна: Франция
Жанр: Боевик, комедия
Продолжительность: 01:30:53
Перевод: Дублированный, профессиональный двухголосый, авторский
Режиссер: Жерар Кравчик
В ролях: Сами Насери, Фредерик Дифенталь, Бернар Фарси, Эмма Сьоберг, Эдуард Монтут, Жан-Кристоф Буве, Жан-Люк Кучар, Франсуа Дамиенс, Морад Зегвенди, Джибрил Сиссе
-Сюжет фильма
Продолжение знаменитой автомобильной саги. Спустя пять лет после событий третьего фильма, Даниэль и Эмильен снова вместе и мы вновь имеем возможность наблюдать за их приключениями - на этот раз на Лазурном берегу. Преступника № 1 транспортируют из Бельгии в Конго… через Марсель. Всего несколько часов самый опасный человек в мире, надежно упакованный в скафандр и железную клетку, должен пробыть в полицейском участке комиссара Жибера. Но стеречь преступника доверили Эмильену… Петра внедрится в банду и очарует злодея, Жибер задаст жару бандитам и покажет, как настоящие французы играют в футбол. И, конечно, полицейским Марселя опять не обойтись без помощи Даниеля и его реактивного такси.-Файл
Кодек: x264
Формат: MKV
Качество: BDRip 1080p (Источник: Blu-ray)
Видео: MPEG-4 AVC (2.35:1) 1920x816 pix, 23.976 fps, 10240 kbps, 0.273 Bits/Pixel
Аудио I: Dolby Digital (5.1) 16 bit, 48 kHz, 448 kbps (DUB)
Аудио II: Dolby Digital (5.1) 16 bit, 48 kHz, 448 kbps (DVO "П. Гланц и И. Королева")
Аудио III: Dolby Digital (5.1) 16 bit, 48 kHz, 448 kbps (AVO "А. Гаврилов")
Аудио IV: Dolby Digital (5.1) 16 bit, 48 kHz, 640 kbps (French "Original")
Субтитры: SRT Русские, Английские
Меню: Сохранены оригинальные чаптеры Blu-ray

MI & x264

General
Unique ID : 224133673689261122975375810453527380763 (0xA89E934B78EB701D9430CD5A347CC31B)
Format : Matroska
Format version : Version 2
File size : 7.75 GiB
Duration : 1h 30mn
Overall bit rate : 12.2 Mbps
Movie name : Такси 4 (2007) BDRip (1080p)
Encoded date : UTC 2014-10-07 06:06:11
Writing application : mkvmerge v5.8.0 ('No Sleep / Pillow') built on Sep 2 2012 15:37:04
Writing library : libebml v1.2.3 + libmatroska v1.3.0
Video
ID : 1
Format : AVC
Format/Info : Advanced Video Codec
Format profile : High@L4.1
Format settings, CABAC : Yes
Format settings, ReFrames : 5 frames
Codec ID : V_MPEG4/ISO/AVC
Duration : 1h 30mn
Bit rate : 10.2 Mbps
Width : 1 920 pixels
Height : 816 pixels
Display aspect ratio : 2.35:1
Frame rate mode : Constant
Frame rate : 23.976 fps
Color space : YUV
Chroma subsampling : 4:2:0
Bit depth : 8 bits
Scan type : Progressive
Bits/(Pixel*Frame) : 0.273
Stream size : 6.34 GiB (82%)
Title : Release by Alex260680
Writing library : x264 core 142 r2479 dd79a61
Encoding settings : cabac=1 / ref=5 / deblock=1:-3:-3 / analyse=0x3:0x133 / me=umh / subme=11 / psy=1 / psy_rd=1.00:0.00 / mixed_ref=1 / me_range=32 / chroma_me=1 / trellis=2 / 8x8dct=1 / cqm=0 / deadzone=21,11 / fast_pskip=0 / chroma_qp_offset=-2 / threads=6 / lookahead_threads=1 / sliced_threads=0 / nr=0 / decimate=0 / interlaced=0 / bluray_compat=0 / constrained_intra=0 / bframes=7 / b_pyramid=2 / b_adapt=2 / b_bias=0 / direct=3 / weightb=1 / open_gop=0 / weightp=2 / keyint=240 / keyint_min=23 / scenecut=40 / intra_refresh=0 / rc=2pass / mbtree=0 / bitrate=10240 / ratetol=1.0 / qcomp=0.60 / qpmin=0 / qpmax=69 / qpstep=4 / cplxblur=20.0 / qblur=0.5 / ip_ratio=1.40 / pb_ratio=1.30 / aq=1:0.70
Language : French
Default : Yes
Forced : No
Audio #1
ID : 2
Format : AC-3
Format/Info : Audio Coding 3
Mode extension : CM (complete main)
Format settings, Endianness : Big
Codec ID : A_AC3
Duration : 1h 30mn
Bit rate mode : Constant
Bit rate : 448 Kbps
Channel(s) : 6 channels
Channel positions : Front: L C R, Side: L R, LFE
Sampling rate : 48.0 KHz
Bit depth : 16 bits
Compression mode : Lossy
Stream size : 291 MiB (4%)
Title : DUB
Language : Russian
Default : Yes
Forced : No
Audio #2
ID : 3
Format : AC-3
Format/Info : Audio Coding 3
Mode extension : CM (complete main)
Format settings, Endianness : Big
Codec ID : A_AC3
Duration : 1h 30mn
Bit rate mode : Constant
Bit rate : 448 Kbps
Channel(s) : 6 channels
Channel positions : Front: L C R, Side: L R, LFE
Sampling rate : 48.0 KHz
Bit depth : 16 bits
Compression mode : Lossy
Stream size : 291 MiB (4%)
Title : DVO (П. Гланц и И. Королева)
Language : Russian
Default : No
Forced : No
Audio #3
ID : 4
Format : AC-3
Format/Info : Audio Coding 3
Mode extension : CM (complete main)
Format settings, Endianness : Big
Codec ID : A_AC3
Duration : 1h 30mn
Bit rate mode : Constant
Bit rate : 448 Kbps
Channel(s) : 6 channels
Channel positions : Front: L C R, Side: L R, LFE
Sampling rate : 48.0 KHz
Bit depth : 16 bits
Compression mode : Lossy
Stream size : 291 MiB (4%)
Title : AVO (А. Гаврилов)
Language : Russian
Default : No
Forced : No
Audio #4
ID : 5
Format : AC-3
Format/Info : Audio Coding 3
Mode extension : CM (complete main)
Format settings, Endianness : Big
Codec ID : A_AC3
Duration : 1h 30mn
Bit rate mode : Constant
Bit rate : 640 Kbps
Channel(s) : 6 channels
Channel positions : Front: L C R, Side: L R, LFE
Sampling rate : 48.0 KHz
Bit depth : 16 bits
Compression mode : Lossy
Stream size : 416 MiB (5%)
Title : Original
Language : French
Default : No
Forced : No
Text #1
ID : 6
Format : UTF-8
Codec ID : S_TEXT/UTF8
Codec ID/Info : UTF-8 Plain Text
Language : Russian
Default : No
Forced : No
Text #2
ID : 7
Format : UTF-8
Codec ID : S_TEXT/UTF8
Codec ID/Info : UTF-8 Plain Text
Language : English
Default : No
Forced : No
Menu
00:00:00.000 : en:Chapter 01
00:10:19.994 : en:Chapter 02
00:21:06.974 : en:Chapter 03
00:31:32.015 : en:Chapter 04
00:40:24.004 : en:Chapter 05
00:47:29.930 : en:Chapter 06
00:51:54.986 : en:Chapter 07
00:57:43.960 : en:Chapter 08
01:04:11.931 : en:Chapter 09
01:08:59.885 : en:Chapter 10
01:17:40.947 : en:Chapter 11
01:22:37.952 : en:Chapter 12-x264 [info]: frame I:1620 Avg QP:17.09 size:209135
x264 [info]: frame P:30593 Avg QP:19.48 size: 93764
x264 [info]: frame B:98538 Avg QP:21.48 size: 38205
Театральная версия - полный перевод!
[Профиль] [ЛС]
Показать сообщения:    

Текущее время: Сегодня 00:21

Часовой пояс: GMT



Вы не можете начинать темы
Вы не можете отвечать на сообщения
Вы не можете редактировать свои сообщения
Вы не можете удалять свои сообщения
Вы не можете голосовать в опросах
Вы не можете прикреплять файлы к сообщениям
Вы не можете скачивать файлы