Таксист / Taxi Driver (Мартин Скорсезе /Martin Scorsese)[1976, триллер, драма, криминал, BDRip] 720p | P, P2

 
Автор Сообщение

sergej644 ®

Пол:

Стаж: 4 года 11 месяцев

Сообщений: 6042

Откуда: Soviet Union



Награды: Нет

Торрент-статистика

Создавать темы 09-Июл-2015 12:39

[Цитировать]

-Таксист / Taxi Driver Информация о фильме
Название: Таксист
Оригинальное название: Taxi Driver
Год выхода: 1976
Жанр: триллер, драма, криминал
Режиссер: Мартин Скорсезе /Martin Scorsese/
В ролях:
Роберт Де Ниро /Robert De Niro/, Джоди Фостер /Jodie Foster/, Альберт Брукс /Albert Brooks/, Леонард Харрис /Leonard Harris/, Питер Бойл /Peter Boyle/, Сибилл Шепард /Cybill Shepherd/, Дайэнн Эбботт /Diahnne Abbott/, Фрэнк Эду /Frank Adu/, Джино Ардито /Gino Ardito/, Виктор Арго /Victor Argo/, Харви Кейтель /Harvey Keitel/...
О фильме:
Тусклый свет слепых фонарей, скелеты фабричных труб, задыхающихся в собственном дыму. Вавилонские башни небоскребов, все это — ад Нового времени, Нью-Йорк.
Ветеран вьетнамской войны Трэйвис Бикл ведет свое одинокое такси по ночным улицам бесконечного города, и перед ним разворачивается мрачная панорама человеческих грехов. Как ветхозаветный пророк, он надеется, что однажды небеса пошлют на землю спасительный дождь, который очистит Нью-Йорк от вековой грязи.
А когда умирает надежда, остается только ненависть. Огненный ливень обрушится на головы грешников. Таксист позаботится об этом.

Страна: США
Продолжительность: 01:53:48
Перевод: Русский профессиональный, многоголосый (Киномания) + Русский профессиональный, многоголосый (R5 - Videoservis) + Русский профессиональный, двухголосый (HTB+)
Отдельно на Яндекс Диске:
Русский профессиональный, многоголосый (ОРТ) (192 kbps / 2.0 ch) (Отдельно)
Русский профессиональный, двухголосый (Blu-ray CEE) (640 kbps / 5.1 ch) (Отдельно)
Украинский профессиональный, многоголосый (Так Треба Продакшн-Інтер) (448 kbps / 5.1 ch) (Отдельно)
Авторский, одноголосый (Г. Либергал) (448 kbps / 5.1 ch) (Отдельно)
Авторский, одноголосый (К. Поздняков) (448 kbps / 5.1 ch) (Отдельно)
Авторский, одноголосый (А. Михалев) (192 kbps / 2.0 ch) (Отдельно)
Авторский, одноголосый (Ю. Живов (448 kbps / 5.1 ch) (Отдельно)
Оригинальная, английская дорожка (448 kbps / 5.1 ch) (Отдельно)
Файл
Кодек: MKV, H.264
Качество: BDRip 720p (Source: Blu-ray Disc)
Видео: 7192 kbps; 0.339 bit/pixel; 1280 x 692; 1.85:1; 23.976 fps
Звук #1: AC3 Dolby Digital; 448.00 kbps, 6 Ch - MVO Kinomaniya
Звук #2: AC3 Dolby Digital; 192.00 kbps, 2 Ch - MVO R5 - Videoservis
Звук #3: AC3 Dolby Digital; 192.00 kbps, 2 Ch - DVO NTV+
Звук #4: AC3 Dolby Digital; 192.00 kbps, 2 Ch - MVO ORT (отдельно / скачать с Яндекс Диск)
Звук #5: AC3 Dolby Digital; 640.00 kbps, 6 Ch - DVO Blu-ray CEE (отдельно / скачать с Яндекс Диск)
Звук #6: AC3 Dolby Digital; 448.00 kbps, 6 Ch - UKR MVO Tak Treba Prodaction (отдельно / скачать с Яндекс Диск)
Звук #7: AC3 Dolby Digital; 448.00 kbps, 6 Ch - AVO Libergal (отдельно / скачать с Яндекс Диск)
Звук #8: AC3 Dolby Digital; 448.00 kbps, 6 Ch - AVO Pozdnyakov (отдельно / скачать с Яндекс Диск)
Звук #9: AC3 Dolby Digital; 192.00 kbps, 2 Ch - AVO Mihalev (отдельно / скачать с Яндекс Диск)
Звук #10: AC3 Dolby Digital; 448.00 kbps, 6 Ch - AVO Zhivov (отдельно / скачать с Яндекс Диск)
Звук #11: AC3 Dolby Digital; 448.00 kbps, 6 Ch - ENG (отдельно / скачать с Яндекс Диск)
Субтитры: Русские, Английские.
Субтитры: Русские (полные (2 вида), форсированные), Английские. (отдельно)
SAMPLE / скачать с Яндекс Диск

MediaInfo

General
Complete name                    : Taksist.1976.TRIPLERUS.BDRip.720p.h264.AC3.-HQ-ViDEO.mkv
Format                           : Matroska
File size                        : 6.51 GiB
Duration                         : 1h 53mn
Overall bit rate                 : 8 187 Kbps
Movie name                       : Taxi Driver (1976)
Encoded date                     : UTC 2011-04-01 10:57:20
Writing application              : mkvmerge v3.3.0 ('Language') built on Mar 24 2010 14:59:24
Writing library                  : libebml v0.8.0 + libmatroska v0.9.0
Video
ID                               : 1
Format                           : AVC
Format/Info                      : Advanced Video Codec
Format profile                   : High@L4.1
Format settings, CABAC           : Yes
Format settings, ReFrames        : 6 frames
Codec ID                         : V_MPEG4/ISO/AVC
Duration                         : 1h 53mn
Bit rate mode                    : Variable
Bit rate                         : 7 192 Kbps
Width                            : 1 280 pixels
Height                           : 692 pixels
Display aspect ratio             : 1.850
Frame rate                       : 23.976 fps
Color space                      : YUV
Chroma subsampling               : 4:2:0
Bit depth                        : 8 bits
Scan type                        : Progressive
Bits/(Pixel*Frame)               : 0.339
Stream size                      : 5.72 GiB (88%)
Title                            : Encoded by GYN
Audio #1
ID                               : 2
Format                           : AC-3
Format/Info                      : Audio Coding 3
Mode extension                   : CM (complete main)
Codec ID                         : A_AC3
Duration                         : 1h 53mn
Bit rate mode                    : Constant
Bit rate                         : 448 Kbps
Channel(s)                       : 6 channels
Channel positions                : Front: L C R, Side: L R, LFE
Sampling rate                    : 48.0 KHz
Bit depth                        : 16 bits
Compression mode                 : Lossy
Stream size                      : 365 MiB (5%)
Title                            : MVO [Kinomania]
Language                         : Russian
Audio #2
ID                               : 3
Format                           : AC-3
Format/Info                      : Audio Coding 3
Format profile                   : Dolby Digital
Mode extension                   : CM (complete main)
Codec ID                         : A_AC3
Duration                         : 1h 53mn
Bit rate mode                    : Constant
Bit rate                         : 192 Kbps
Channel(s)                       : 2 channels
Channel positions                : Front: L R
Sampling rate                    : 48.0 KHz
Bit depth                        : 16 bits
Compression mode                 : Lossy
Stream size                      : 156 MiB (2%)
Title                            : MVO [R5 - Videoservis]
Language                         : Russian
Audio #3
ID                               : 4
Format                           : AC-3
Format/Info                      : Audio Coding 3
Format profile                   : Dolby Digital
Mode extension                   : CM (complete main)
Codec ID                         : A_AC3
Duration                         : 1h 53mn
Bit rate mode                    : Constant
Bit rate                         : 192 Kbps
Channel(s)                       : 2 channels
Channel positions                : Front: L R
Sampling rate                    : 48.0 KHz
Bit depth                        : 16 bits
Compression mode                 : Lossy
Stream size                      : 156 MiB (2%)
Title                            : MVO [HTB+]
Language                         : Russian
Text #1
ID                               : 5
Format                           : UTF-8
Codec ID                         : S_TEXT/UTF8
Codec ID/Info                    : UTF-8 Plain Text
Language                         : Russian
Text #2
ID                               : 6
Format                           : UTF-8
Codec ID                         : S_TEXT/UTF8
Codec ID/Info                    : UTF-8 Plain Text
Language                         : English

скриншоты

Автор рипа: GYN
[Профиль] [ЛС]
Показать сообщения:    

Текущее время: Сегодня 22:04

Часовой пояс: GMT



Вы не можете начинать темы
Вы не можете отвечать на сообщения
Вы не можете редактировать свои сообщения
Вы не можете удалять свои сообщения
Вы не можете голосовать в опросах
Вы не можете прикреплять файлы к сообщениям
Вы не можете скачивать файлы