Такса / Wiener-Dog (2016) BDRip 720p | P

 
Автор Сообщение

достали все ®

Пол:

Стаж: 1 год 8 месяцев

Сообщений: 6571



Награды: 12 (Подробнее)

Top Releaser 3 (Количество: 1) Mega Releaser 1 (Количество: 1) Mega Seeder 4 (Количество: 1)
Торрент-статистика

Создавать темы 18-Окт-2016 21:59

[Цитировать]

Информация о фильме
Название: Такса
Оригинальное название: Wiener-Dog
Страна: США
Студия: Annapurna Pictures, Killer Films
Жанр: комедия
Год выпуска: 2016
Продолжительность: 01:28:03
Перевод: Профессиональный (многоголосый закадровый)
Cубтитры: нет
Оригинальная аудиодорожка: английский
Режиссер: Тодд Солондз / Todd Solondz
В ролях: Дэнни ДеВито, Заша Мэмет, Китон Найджел Кук, Трэйси Леттс, Жюли Дельпи, Грета Гервиг, Киран Калкин, Ригоберто Гарсиа, Аральдо Альварес, Дэйн Викторианио
Описание: Трогательная, вместе с тем наполненная сарказмом история путешествия таксы от хозяина к хозяину. Четыре человеческих судьбы связаны одним питомцем: собаке приходится быть послушной няней, психологом, а очередной хозяин вообще крадет таксу и пускается с ней в авантюру. В итоге, невинный пес становится свидетелем полного спектра человеческих переживаний. Удастся ли таксе выжить в этом круговороте событий?

Тип релиза: BDRip 720p
Контейнер: MKV
Видео: MPEG-4 AVC, 7540 Кбит/с, 1280x694, 23,976 fps
Аудио: Rus, AC3, 192 kb/s (2 ch), 48 kHz
Аудио 2: Eng, AC3, 448 kb/s (5 ch), 48 kHz

MediaInfo

Format : Matroska
Format version : Version 4 / Version 2
File size : 5.13 GiB
Duration : 1h 28mn
Overall bit rate : 8 346 Kbps
Movie name : Такса. (Tonik)
Encoded date : UTC 2016-10-18 18:12:03
Writing application : mkvmerge v7.1.0 ('Good Love') 64bit built on Jul 27 2014 13:06:55
Writing library : libebml v1.3.0 + libmatroska v1.4.1
_STATISTICS_WRITING_APP : mkvmerge v7.1.0 ('Good Love') 64bit built on Jul 27 2014 13:06:55
_STATISTICS_WRITING_DATE_UTC : 2016-10-18 18:12:03
_STATISTICS_TAGS : BPS DURATION NUMBER_OF_FRAMES NUMBER_OF_BYTES
DURATION : 01:27:58.240000000
NUMBER_OF_FRAMES : 164945
NUMBER_OF_BYTES : 126677760
Video
ID : 1
Format : AVC
Format/Info : Advanced Video Codec
Format profile : High@L4.1
Format settings, CABAC : Yes
Format settings, ReFrames : 9 frames
Codec ID : V_MPEG4/ISO/AVC
Duration : 1h 28mn
Bit rate : 7 540 Kbps
Width : 1 280 pixels
Height : 694 pixels
Display aspect ratio : 1.85:1
Frame rate mode : Constant
Frame rate : 23.976 fps
Color space : YUV
Chroma subsampling : 4:2:0
Bit depth : 8 bits
Scan type : Progressive
Bits/(Pixel*Frame) : 0.354
Stream size : 4.64 GiB (90%)
Writing library : x264 core 148 r2692 64f4e24
Encoding settings : cabac=1 / ref=9 / deblock=1:-3:-3 / analyse=0x3:0x133 / me=umh / subme=11 / psy=1 / psy_rd=1.00:0.00 / mixed_ref=1 / me_range=32 / chroma_me=1 / trellis=2 / 8x8dct=1 / cqm=0 / deadzone=21,11 / fast_pskip=0 / chroma_qp_offset=-2 / threads=9 / lookahead_threads=2 / sliced_threads=0 / nr=0 / decimate=0 / interlaced=0 / bluray_compat=0 / constrained_intra=0 / bframes=16 / b_pyramid=2 / b_adapt=2 / b_bias=0 / direct=3 / weightb=1 / open_gop=0 / weightp=2 / keyint=250 / keyint_min=24 / scenecut=40 / intra_refresh=0 / rc_lookahead=60 / rc=crf / mbtree=0 / crf=17.7 / qcomp=0.74 / qpmin=0 / qpmax=69 / qpstep=4 / vbv_maxrate=38000 / vbv_bufsize=30000 / crf_max=0.0 / nal_hrd=none / filler=0 / ip_ratio=1.40 / pb_ratio=1.23 / aq=3:0.66
Language : English
Default : Yes
Forced : No
_STATISTICS_WRITING_APP : mkvmerge v7.1.0 ('Good Love') 64bit built on Jul 27 2014 13:06:55
_STATISTICS_WRITING_DATE_UTC : 2016-10-18 18:12:03
_STATISTICS_TAGS : BPS DURATION NUMBER_OF_FRAMES NUMBER_OF_BYTES
DURATION : 01:28:03.987000000
NUMBER_OF_FRAMES : 126689
NUMBER_OF_BYTES : 5088444054
Audio #1
ID : 2
Format : AC-3
Format/Info : Audio Coding 3
Mode extension : CM (complete main)
Format settings, Endianness : Big
Codec ID : A_AC3
Duration : 1h 28mn
Bit rate mode : Constant
Bit rate : 192 Kbps
Channel(s) : 2 channels
Channel positions : Front: L R
Sampling rate : 48.0 KHz
Bit depth : 16 bits
Compression mode : Lossy
Stream size : 121 MiB (2%)
Language : Russian
Default : Yes
Forced : No
Audio #2
ID : 3
Format : AC-3
Format/Info : Audio Coding 3
Mode extension : CM (complete main)
Format settings, Endianness : Big
Codec ID : A_AC3
Duration : 1h 28mn
Bit rate mode : Constant
Bit rate : 448 Kbps
Channel(s) : 5 channels
Channel positions : Front: L C R, Side: L R
Sampling rate : 48.0 KHz
Bit depth : 16 bits
Compression mode : Lossy
Stream size : 282 MiB (5%)
Language : English
Default : No
Forced : No
Menu
00:00:00.000 : en:Chapter 01
00:05:00.300 : en:Chapter 02
00:10:00.600 : en:Chapter 03
00:15:00.900 : en:Chapter 04
00:20:01.200 : en:Chapter 05
00:25:01.500 : en:Chapter 06
00:30:01.800 : en:Chapter 07
00:35:02.100 : en:Chapter 08
00:40:02.400 : en:Chapter 09
00:45:02.700 : en:Chapter 10
00:50:03.000 : en:Chapter 11
00:55:03.300 : en:Chapter 12
01:00:03.600 : en:Chapter 13
01:05:03.900 : en:Chapter 14
01:10:04.200 : en:Chapter 15
01:15:04.500 : en:Chapter 16
01:20:04.800 : en:Chapter 17
01:24:42.327 : en:Chapter 18

Скриншоты

[Профиль] [ЛС]
Кто просматривает тему:

Форум Тема Автор Размер
Фильмы 2016 года Такса / Wiener-Dog (2016) HDRip | Р Russian Mafia 1.37 GB
Показать сообщения:    

Текущее время: Сегодня 22:31

Часовой пояс: GMT



Вы не можете начинать темы
Вы не можете отвечать на сообщения
Вы не можете редактировать свои сообщения
Вы не можете удалять свои сообщения
Вы не можете голосовать в опросах
Вы не можете прикреплять файлы к сообщениям
Вы не можете скачивать файлы