Такой же предатель, как и мы / Our Kind of Traitor (2016) BDRip 1080p от ExKinoRay | iTunes

 
Автор Сообщение

Russian Mafia ®

Пол:

Стаж: 1 год 8 месяцев

Сообщений: 4260



Награды: 10 (Подробнее)

Mega Seeder 3 (Количество: 1) Mega Seeder 1 (Количество: 1) Top Releaser 4 (Количество: 1)
Торрент-статистика

Создавать темы 15-Сен-2016 13:26

[Цитировать]

Информация о фильме
Название: Такой же предатель, как и мы
Оригинальное название: Our Kind of Traitor
Год выхода: 2016
Жанр: Триллер
Режиссер: Сюзанна Уайт
В ролях: Карлос Акоста, Радивойе Буквич, Стеллан Скарсгард, Мария Фомина, Доля Гавански, Григорий Добрыгин, Велибор Топич, Павел Жайда, Эван МакГрегор, Наоми Харрис
О фильме:
Молодая английская пара, отдыхая в Марокко, заводит знакомство с русским олигархом, отмывающим деньги для преступных группировок, чьи лидеры вот-вот спишут его со счетов. Чтобы спасти себя и семью, он предлагает разведке Великобритании море ценных сведений в обмен на защиту и покровительство. Его последняя отчаянная надежда — на «английских джентльменов», которые всегда «играют честно»...

Страна: Великобритания, Франция
Студия: Amazon Prime Instant Video, Anton Capital Entertainment (ACE), Film4
Продолжительность: 01:47:36
Перевод: Профессиональный многоголосый (закадровый) | iTunes
Файл
Кодек: MPEG-4
Качество: BDRip 1080p
Видео: 1920x808, 17.0 Mbit/s, 24.000 fps
Звук:
Аудио #01: 48 kHz, AC3, 5.1, 384 Kbps | Дублированный, iTunes |
Аудио #02: 48 kHz, DTS, 5.1, 1510 kbps | Оригинал |
Субтитры: Английские

MI

Общее
Уникальный идентификатор : 186017004899819405150329643662318374514 (0x8BF1926DF2C82A7B91B65F8725AA0E72)
Полное имя : G:VideoOur.Kind.of.Traitor.2016.BDRip.1080p.ExKinoRay.mkv
Формат : Matroska
Версия формата : Version 4 / Version 2
Размер файла : 14,0 Гбайт
Продолжительность : 1 ч. 47 м.
Общий поток : 18,6 Мбит/сек
Название фильма : ***селезень***
Дата кодирования : UTC 2016-09-15 11:56:34
Программа кодирования : mkvmerge v8.3.0 ('Over the Horizon') 64bit
Библиотека кодирования : libebml v1.3.1 + libmatroska v1.4.2
Видео
Идентификатор : 1
Формат : AVC
Формат/Информация : Advanced Video Codec
Профиль формата : High@L4.1
Параметр CABAC формата : Да
Параметр ReFrames формата : 5 кадров
Идентификатор кодека : V_MPEG4/ISO/AVC
Продолжительность : 1 ч. 47 м.
Битрейт : 17,5 Мбит/сек
Ширина : 1920 пикселей
Высота : 808 пикселей
Соотношение сторон : 2,40:1
Режим частоты кадров : Постоянный
Частота кадров : 24,000 кадра/сек
Цветовое пространство : YUV
Субдискретизация насыщенности : 4:2:0
Битовая глубина : 8 бит
Тип развёртки : Прогрессивная
Бит/(Пиксели*Кадры) : 0.470
Размер потока : 13,1 Гбайт (94%)
Заголовок : ***селезень***
Библиотека кодирования : x264 core 146 r2538 121396c
Настройки программы : cabac=1 / ref=5 / deblock=1:-3:-3 / analyse=0x3:0x133 / me=tesa / subme=11 / psy=1 / psy_rd=1.04:0.00 / mixed_ref=1 / me_range=32 / chroma_me=1 / trellis=2 / 8x8dct=1 / cqm=0 / deadzone=21,11 / fast_pskip=0 / chroma_qp_offset=-2 / threads=60 / lookahead_threads=6 / sliced_threads=0 / nr=0 / decimate=0 / interlaced=0 / bluray_compat=0 / constrained_intra=0 / bframes=10 / b_pyramid=2 / b_adapt=2 / b_bias=0 / direct=3 / weightb=1 / open_gop=0 / weightp=2 / keyint=240 / keyint_min=24 / scenecut=40 / intra_refresh=0 / rc_lookahead=150 / rc=2pass / mbtree=0 / bitrate=17500 / ratetol=1.0 / qcomp=0.60 / qpmin=0 / qpmax=69 / qpstep=4 / cplxblur=20.0 / qblur=0.5 / vbv_maxrate=62500 / vbv_bufsize=78125 / nal_hrd=none / filler=0 / ip_ratio=1.40 / pb_ratio=1.30 / aq=1:0.80 / zones=2473,3062,b=1.4/3141,3279,b=1.4/3773,3828,b=1.4/17596,17752,b=1.4/21212,21448,b=1.4/42288,42377,b=1.4/42573,43130,b=1.4/72876,72940,b=1.4/78396,78491,b=1.4/83313,83365,b=1.4/102315,102448,b=1.4/114561,114665,b=1.4/138488,139397,b=1.4/146154,154944,b=0.2
Язык : English
Default : Да
Forced : Нет
Цветовой диапазон : Limited
Коэффициенты матрицы : BT.709
Аудио #1
Идентификатор : 2
Формат : AC-3
Формат/Информация : Audio Coding 3
Расширение режима : CM (complete main)
Параметр Endianness формата : Big
Идентификатор кодека : A_AC3
Продолжительность : 1 ч. 47 м.
Вид битрейта : Постоянный
Битрейт : 384 Кбит/сек
Каналы : 6 каналов
Расположение каналов : Front: L C R, Side: L R, LFE
Частота : 48,0 КГц
Частота кадров : 31,250 кадров/сек (1536 spf)
Метод сжатия : С потерями
Задержка видео : 1 с. 504 мс.
Размер потока : 295 Мбайт (2%)
Заголовок : iTunes
Язык : Russian
Default : Да
Forced : Нет
Аудио #2
Идентификатор : 3
Формат : DTS
Формат/Информация : Digital Theater Systems
Режим : 16
Параметр Endianness формата : Big
Идентификатор кодека : A_DTS
Продолжительность : 1 ч. 47 м.
Вид битрейта : Постоянный
Битрейт : 768 Кбит/сек
Каналы : 6 каналов
Расположение каналов : Front: L C R, Side: L R, LFE
Частота : 48,0 КГц
Частота кадров : 93,750 кадра/сек (512 spf)
Битовая глубина : 24 бит
Метод сжатия : С потерями
Размер потока : 591 Мбайт (4%)
Заголовок : Original
Язык : English
Default : Нет
Forced : Нет
Текст #1
Идентификатор : 4
Формат : UTF-8
Идентификатор кодека : S_TEXT/UTF8
Идентификатор кодека/Информация : UTF-8 Plain Text
Продолжительность : 1 ч. 36 м.
Битрейт : 47 бит/сек
Count of elements : 1039
Размер потока : 33,2 Кбайт (0%)
Заголовок : Full
Язык : English
Default : Нет
Forced : Нет
Текст #2
Идентификатор : 5
Формат : UTF-8
Идентификатор кодека : S_TEXT/UTF8
Идентификатор кодека/Информация : UTF-8 Plain Text
Продолжительность : 1 ч. 40 м.
Битрейт : 52 бит/сек
Count of elements : 1264
Размер потока : 38,6 Кбайт (0%)
Заголовок : SDH
Язык : English
Default : Нет
Forced : Нет
Меню
00:00:00.000 : en:Chapter 1
00:07:50.917 : en:Chapter 2
00:15:23.208 : en:Chapter 3
00:24:40.625 : en:Chapter 4
00:38:49.833 : en:Chapter 5
00:43:41.792 : en:Chapter 6
00:58:08.958 : en:Chapter 7
01:07:19.333 : en:Chapter 8
01:13:50.417 : en:Chapter 9
01:17:30.167 : en:Chapter 10
01:35:39.292 : en:Chapter 11
01:41:33.542 : en:Chapter 12

Скриншоты

Релиз от: Автор релиза:
[Профиль] [ЛС]
Показать сообщения:    

Текущее время: Сегодня 14:08

Часовой пояс: GMT



Вы не можете начинать темы
Вы не можете отвечать на сообщения
Вы не можете редактировать свои сообщения
Вы не можете удалять свои сообщения
Вы не можете голосовать в опросах
Вы не можете прикреплять файлы к сообщениям
Вы не можете скачивать файлы