Такой же предатель, как и мы / Our Kind of Traitor (2016) BDRemux 1080p от ExKinoRay | iTunes

 
Автор Сообщение

Russian Mafia ®

Пол:

Стаж: 1 год 8 месяцев

Сообщений: 4255



Награды: 10 (Подробнее)

Top Releaser 2 (Количество: 1) Mega Seeder 3 (Количество: 1) Top Releaser 4 (Количество: 1)
Торрент-статистика

Создавать темы 15-Сен-2016 12:10

[Цитировать]

Информация о фильме
Название: Такой же предатель, как и мы
Оригинальное название: Our Kind of Traitor
Год выхода: 2016
Жанр: Триллер
Режиссер: Сюзанна Уайт
В ролях: Карлос Акоста, Радивойе Буквич, Стеллан Скарсгард, Мария Фомина, Доля Гавански, Григорий Добрыгин, Велибор Топич, Павел Жайда, Эван МакГрегор, Наоми Харрис
О фильме:
Молодая английская пара, отдыхая в Марокко, заводит знакомство с русским олигархом, отмывающим деньги для преступных группировок, чьи лидеры вот-вот спишут его со счетов. Чтобы спасти себя и семью, он предлагает разведке Великобритании море ценных сведений в обмен на защиту и покровительство. Его последняя отчаянная надежда — на «английских джентльменов», которые всегда «играют честно»...

Страна: Великобритания, Франция
Студия: Amazon Prime Instant Video, Anton Capital Entertainment (ACE), Film4
Продолжительность: 01:47:36
Перевод: Профессиональный многоголосый (закадровый) | iTunes
Файл
Кодек: MPEG-4
Качество: BDRemux 1080p
Видео: 1920x1080, 34.7 Mbit/s, 24.000 fps
Звук:
Аудио #01: 48 kHz, AC3, 5.1, 384 Kbps | Дублированный, iTunes |
Аудио #02: 48 kHz, DTS-HD MA, 5.1, 3608 kbps | Оригинал |
Субтитры: Английские (SDH)

MI

Общее
Уникальный идентификатор : 215925156114504936064237370895656316448 (0xA271AC21CCB45276A5426B37859C6E20)
Полное имя : G:VideoOur.Kind.of.Traitor.2016.BDREMUX.1080p.ExKinoRay.mkv
Формат : Matroska
Версия формата : Version 4 / Version 2
Размер файла : 29,1 Гбайт
Продолжительность : 1 ч. 47 м.
Режим общего битрейта : Переменный
Общий поток : 38,7 Мбит/сек
Название фильма : build by ***селезень***
Дата кодирования : UTC 2016-09-15 11:06:27
Программа кодирования : mkvmerge v8.3.0 ('Over the Horizon') 64bit
Библиотека кодирования : libebml v1.3.1 + libmatroska v1.4.2
Видео
Идентификатор : 1
Формат : AVC
Формат/Информация : Advanced Video Codec
Профиль формата : High@L4.1
Параметр CABAC формата : Да
Параметр ReFrames формата : 4 кадра
Идентификатор кодека : V_MPEG4/ISO/AVC
Продолжительность : 1 ч. 47 м.
Вид битрейта : Переменный
Битрейт : 34,7 Мбит/сек
Максимальный битрейт : 37,0 Мбит/сек
Ширина : 1920 пикселей
Высота : 1080 пикселей
Соотношение сторон : 16:9
Режим частоты кадров : Постоянный
Частота кадров : 24,000 кадра/сек
Цветовое пространство : YUV
Субдискретизация насыщенности : 4:2:0
Битовая глубина : 8 бит
Тип развёртки : Прогрессивная
Бит/(Пиксели*Кадры) : 0.698
Размер потока : 26,1 Гбайт (90%)
Заголовок : build by ***селезень***
Язык : English
Default : Да
Forced : Нет
Аудио #1
Идентификатор : 2
Формат : AC-3
Формат/Информация : Audio Coding 3
Расширение режима : CM (complete main)
Параметр Endianness формата : Big
Идентификатор кодека : A_AC3
Продолжительность : 1 ч. 47 м.
Вид битрейта : Постоянный
Битрейт : 384 Кбит/сек
Каналы : 6 каналов
Расположение каналов : Front: L C R, Side: L R, LFE
Частота : 48,0 КГц
Частота кадров : 31,250 кадров/сек (1536 spf)
Метод сжатия : С потерями
Задержка видео : 1 с. 504 мс.
Размер потока : 295 Мбайт (1%)
Заголовок : iTunes
Язык : Russian
Default : Да
Forced : Нет
Аудио #2
Идентификатор : 3
Формат : DTS
Формат/Информация : Digital Theater Systems
Профиль формата : MA / Core
Режим : 16
Параметр Endianness формата : Big
Идентификатор кодека : A_DTS
Продолжительность : 1 ч. 47 м.
Вид битрейта : Переменный / Постоянный
Битрейт : 3608 Кбит/сек / 768 Кбит/сек
Каналы : 6 каналов
Расположение каналов : Front: L C R, Side: L R, LFE
Частота : 48,0 КГц
Частота кадров : 93,750 кадра/сек (512 spf)
Битовая глубина : 24 бит
Метод сжатия : Без потерь / Lossy
Размер потока : 2,71 Гбайт (9%)
Заголовок : Original
Язык : English
Default : Нет
Forced : Нет
Текст
Идентификатор : 4
Формат : UTF-8
Идентификатор кодека : S_TEXT/UTF8
Идентификатор кодека/Информация : UTF-8 Plain Text
Продолжительность : 1 ч. 40 м.
Битрейт : 52 бит/сек
Count of elements : 1264
Размер потока : 38,6 Кбайт (0%)
Заголовок : SDH
Язык : English
Default : Нет
Forced : Нет
Меню
00:00:00.000 : en:00:00:00.000
00:07:50.917 : en:00:07:50.917
00:15:23.208 : en:00:15:23.208
00:24:40.625 : en:00:24:40.625
00:38:49.833 : en:00:38:49.833
00:43:41.792 : en:00:43:41.792
00:58:08.958 : en:00:58:08.958
01:07:19.333 : en:01:07:19.333
01:13:50.417 : en:01:13:50.417
01:17:30.167 : en:01:17:30.167
01:35:39.292 : en:01:35:39.292
01:41:33.542 : en:01:41:33.542

Скриншоты

Релиз от: Автор релиза:
[Профиль] [ЛС]
Показать сообщения:    

Текущее время: Сегодня 16:17

Часовой пояс: GMT



Вы не можете начинать темы
Вы не можете отвечать на сообщения
Вы не можете редактировать свои сообщения
Вы не можете удалять свои сообщения
Вы не можете голосовать в опросах
Вы не можете прикреплять файлы к сообщениям
Вы не можете скачивать файлы