Такой же, да не совсем / Тот же, но совсем другой / Same Same But Different (Детлев Бук / Detlev Buck) [2009, Германия, драма, HDRip] DVO (Еврокино)

 
Автор Сообщение

TorrentFilm ®

Пол:

Стаж: 2 года

Сообщений: 7741



Награды: Нет

Торрент-статистика

Создавать темы 31-Янв-2015 00:01

[Цитировать]

Такой же, да не совсем / Тот же, но совсем другой / Same Same But Different
Страна: Германия
Жанр: драма
Год выпуска: 2009
Продолжительность: 01:43:55
Перевод: Профессиональный (двухголосый закадровый) Еврокино
Cубтитры: нет
Режиссер: Детлев Бук / Detlev Buck
В ролях: Бен - Дэвид Кросс (David Kross), Срейкау - Апинья Сакулчароенсук (Apinya Sakuljaroensuk), Алекс - Майкл Островски (Michael Ostrowski).
Описание: 20 лет - не тот возраст, когда размышляешь о судьбе, устройстве мира и прочих философских темах. Именно так относится к жизни и Бен - немецкий студент, приехавший на каникулы в Камбоджу, чтобы «оторваться» от слишком правильной жизни Европы. Камбоджа - это безбашенные развлечения, дискотеки, легкие (и не очень) наркотики, пальмы, волны, девочки... Однако отношения с одной из «барных девочек» (bar girl) по имени Срейкау неожиданно для Бена перерастают в нечто большее, чем знакомство на одну ночь, и, вернувшись в Германию, Бен начинает высылать ей деньги, чтобы она больше не торговала собой. Но романтизм внезапно разрушается, когда Срейкау сообщает Бену, что она ВИЧ-инфицирована.
Бену предстоит пройти нелегкий путь, преодолевая сомнения и расстояния. И главное - огромную разницу в менталитете, поскольку для азиатки показателем любви являются не слова, а забота о всей ее семье; смерть от СПИДа ничего не значит, потому что будет следующее перерождение...
Доп. информация: За дорожку с канала Еврокино спасибо alenavova.
За синхрон спасибо xelon2006
Я выступил инициатором всего этого дела.

Релиз
Сэмпл: https://yadi.sk/i/MKNVmlqqeKKya
Качество видео: HDRip
Формат видео: AVI
Видео: 720x304 (2.37:1), 24.000 fps, XviD build 50 ~1668 kbps avg, 0.32 bit/pixel
Аудио: 48 kHz, AC3 Dolby Digital, 2/0 (L,R) ch, ~192 kbps

MediaInfo

Тот же, но совсем другой - Same Same But Different [by Edich2].avi
Format : AVI
Format/Info : Audio Video Interleave
File size : 1.36 GiB
Duration : 1h 43mn
Overall bit rate : 1 870 Kbps
Movie name : Тот же, но совсем другой - Same Same But Different [by Edich2]
Director : by Edich2
Writing application : VirtualDubMod 1.5.10.3 | www.virtualdub-fr.org || (build 2550/release)
Comment : RuTracker.org
Video
ID : 0
Format : MPEG-4 Visual
Format profile : Advanced Simple@L5
Format settings, BVOP : 2
Format settings, QPel : No
Format settings, GMC : No warppoints
Format settings, Matrix : Default (H.263)
Codec ID : XVID
Codec ID/Hint : XviD
Duration : 1h 43mn
Bit rate : 1 669 Kbps
Width : 720 pixels
Height : 304 pixels
Display aspect ratio : 2.35:1
Frame rate : 24.000 fps
Color space : YUV
Chroma subsampling : 4:2:0
Bit depth : 8 bits
Scan type : Progressive
Compression mode : Lossy
Bits/(Pixel*Frame) : 0.318
Stream size : 1.21 GiB (89%)
Writing library : XviD 1.2.1 (UTC 2008-12-04)
Audio
ID : 1
Format : AC-3
Format/Info : Audio Coding 3
Mode extension : CM (complete main)
Format settings, Endianness : Big
Codec ID : 2000
Duration : 1h 43mn
Bit rate mode : Constant
Bit rate : 192 Kbps
Channel(s) : 2 channels
Channel positions : Front: L R
Sampling rate : 48.0 KHz
Bit depth : 16 bits
Compression mode : Lossy
Stream size : 143 MiB (10%)
Alignment : Split accross interleaves
Interleave, duration : 42 ms (1.00 video frame)
Interleave, preload duration : 500 ms

Скриншоты


[Профиль] [ЛС]

Создавать темы 06-Авг-2015 22:47 (спустя 6 месяцев 6 дней)

Топик был перенесен из форума Фильмы до 2014 года в форум Фильмы до 2012 года
sergej644
 

Создавать темы 12-Июн-2016 08:48 (спустя 1 год 4 месяца)

Топик был перенесен из форума Фильмы 2011 года в форум Фильмы 2009 года
Russian Mafia
 
Показать сообщения:    

Текущее время: Сегодня 14:47

Часовой пояс: GMT



Вы не можете начинать темы
Вы не можете отвечать на сообщения
Вы не можете редактировать свои сообщения
Вы не можете удалять свои сообщения
Вы не можете голосовать в опросах
Вы не можете прикреплять файлы к сообщениям
Вы не можете скачивать файлы