Такер и Дейл против Зла / Убойные каникулы / Tucker & Dale vs Evil (Эли Крейг / Eli Craig) [2010, Канада, США, Комедия, пародия, ужасы, HDRip] Dub

 
Автор Сообщение

TorrentFilm ®

Пол:

Стаж: 2 года

Сообщений: 7741



Награды: Нет

Торрент-статистика

Создавать темы 08-Фев-2016 00:08

[Цитировать]

Такер и Дейл против Зла / Убойные каникулы / Tucker & Dale vs Evil- Год выпуска: 2010
Страна: Канада, США
Продолжительность: 01:28:34
Жанр: Комедия, пародия, ужасы
Cубтитры: нет
Оригинальная аудиодорожка: нет
Перевод: Профессиональный (дублированный)
Режиссер: Эли Крейг / Eli Craig
В ролях: Алан Тьюдик, Кэти Боуден, Челан Симмонс, Тайлер Лэбин, Брэндон Джей МакЛарен, Джесси Мосс, Кристи Лэйн, Саша Уильямс, Алекс Арсено, Филип Грэйнджер...-Описание (ashegay): В центре событий группа подростков, выехавших отдохнуть на природе, но случайно «свернувших не туда». Вечером подростки рассказывают страшилки у костра. Одна из историй — о страшных маньяках проживающих в этих краях. Вскоре подростки встречают двух подозрительных местных жителей, по описанию очень похожих на вышеупомянутых маньяков. Вскоре подростки будут стараться всеми силами выжить, пытаясь противостоять «маньякам», которые на самом деле безобидные, пусть и не слишком умные деревенские парни.-Доп. информация: Комедии «Такер и Дейл против зла» (адаптированное название - «Убойные каникулы») светит сиквел. Алан Тудик и Тайлер Лабин, исполнители ролей Такера и Дейла, рассказали, что продюсеры прислали им электронное послание, в котором признались, мол, у них есть идея для продолжения, они хотят найти сценариста и снять продолжение. Тудик и Лабин сразу же обозначали границы: оригинал занимает особое место в их сердцах, поэтому говносиквелу не бывать - только достойная вторая часть или ничего. «Такер и Дейл против зла» - жизнерадостный фестивальный ребёнок и единственное место, где у него был широкий кинотеатральный прокат - это, кажется, Россия. Впрочем, кровавя комедия получила культовый статус на домашнем видео.
В оригинале двое безобидных деревенских парней Дейл и Такер отдыхают в хижине в лесу. Группа шумных и надоедливых студентов ошибочно принимает их за маньяков и с этого момента начинают появляться настоящие жмурики.

премьера (мир) 22 января 2010 | SAMPLE | DVD
Качество видео: HDRip
Формат видео: AVI
Видео: 688x288 (2,40:1), 23.976fps, XviD, 1035 kbps avg, 0.218 bit/pixel
Аудио: MPEG Audio Layer, 48.0 KHz, 2 ch, 128kbps avg

MediaInfo

GeneralComplete name : D:\Tucker & Dale vs Evil (2010) HDRip by Scarabey.aviFormat : AVIFormat/Info : Audio Video InterleaveFile size : 743 MiBDuration : 1h 28mnOverall bit rate : 1 172 KbpsWriting application : VirtualDubMod 1.5.10.2 (build 2540/release)Writing library : VirtualDubMod build 2540/release
VideoID : 0Format : MPEG-4 VisualFormat profile : Advanced Simple@L5Format settings, BVOP : 1Format settings, QPel : NoFormat settings, GMC : No warppointsFormat settings, Matrix : CustomCodec ID : XVIDCodec ID/Hint : XviDDuration : 1h 28mnBit rate : 1 035 KbpsWidth : 688 pixelsHeight : 288 pixelsDisplay aspect ratio : 2.40:1Frame rate : 23.976 fpsColor space : YUVChroma subsampling : 4:2:0Bit depth : 8 bitsScan type : ProgressiveCompression mode : LossyBits/(Pixel*Frame) : 0.218Stream size : 656 MiB (88%)Writing library : XviD 1.2.1 (UTC 2008-12-04)
AudioID : 1Format : MPEG AudioFormat version : Version 1Format profile : Layer 3Codec ID : 55Codec ID/Hint : MP3Duration : 1h 28mnBit rate mode : ConstantBit rate : 128 KbpsChannel(s) : 2 channelsSampling rate : 48.0 KHzCompression mode : LossyStream size : 81.1 MiB (11%)Alignment : Aligned on interleavesInterleave, duration : 42 ms (1.00 video frame)Interleave, preload duration : 504 msWriting library : LAME3.97Encoding settings : -m s -V 4 -q 2 -lowpass 17 -b 128

Скриншоты

[Профиль] [ЛС]

Создавать темы 12-Июн-2016 07:53 (спустя 4 месяца 4 дня)

Топик был перенесен из форума Фильмы 2011 года в форум Фильмы 2010 года
Russian Mafia
 
Показать сообщения:    

Текущее время: Сегодня 08:55

Часовой пояс: GMT



Вы не можете начинать темы
Вы не можете отвечать на сообщения
Вы не можете редактировать свои сообщения
Вы не можете удалять свои сообщения
Вы не можете голосовать в опросах
Вы не можете прикреплять файлы к сообщениям
Вы не можете скачивать файлы