Такер и Дейл против Зла / Убойные каникулы / Tucker & Dale vs Evil (Эли Крейг / Eli Craig) [2010, Канада, США, Комедия, пародия, ужасы, HDRip] AVO (Карповский)

 
Автор Сообщение

TorrentFilm ®

Пол:

Стаж: 2 года

Сообщений: 7741



Награды: Нет

Торрент-статистика

Создавать темы 28-Окт-2015 00:10

[Цитировать]

Такер и Дейл против Зла / Убойные каникулы / Tucker & Dale vs Evil- Страна: Канада, США
Жанр: Комедия, пародия, ужасы
Год выпуска: 2010
Продолжительность: 01:28:39
Перевод: Авторский (одноголосый закадровый) Карповский
Cубтитры: нет
Оригинальная аудиодорожка: нет
Режиссер: Эли Крейг / Eli Craig
В ролях: Алан Тьюдик, Кэти Боуден, Челан Симмонс, Тайлер Лэбин, Брэндон Джей МакЛарен, Джесси Мосс, Кристи Лэйн, Саша Уильямс, Алекс Арсено, Филип Грэйнджер
Описание от ashegay: В центре событий группа подростков, выехавших отдохнуть на природе, но случайно «свернувших не туда». Вечером подростки рассказывают страшилки у костра. Одна из историй — о страшных маньяках проживающих в этих краях. Вскоре подростки встречают двух подозрительных местных жителей, по описанию очень похожих на вышеупомянутых маньяков. Вскоре подростки будут стараться всеми силами выжить, пытаясь противостоять «маньякам», которые на самом деле безобидные, пусть и не слишком умные деревенские парни.
Доп. информация: Tucker & Dale vs Evil (Dub + Sub Rus + Original Eng)
- = S A M P L E = -
Качество видео: HDRip (источник не известен)
Формат видео: AVI
Видео: 720x304 (2.35:1), 23.976fps, XviD, 1919kbps avg, 0,366 bit/pixel
Аудио: 48KHz, AC3, 6 ch (Front: L C R; Side: L R, LFE), 448kbps avg [AVO Rus]

MediaInfo

ОбщееПолное имя : D:\Tucker and Dale vs Evil (2010) HDRip AVO Karp.aviФормат : AVIФормат/Информация : Audio Video InterleaveРазмер файла : 1,47 ГбайтПродолжительность : 1 ч. 28 м.Общий поток : 2377 Кбит/секПрограмма кодирования : VirtualDubMod 1.5.10.2 (build 2540/release)Библиотека кодирования : VirtualDubMod build 2540/release
ВидеоИдентификатор : 0Формат : MPEG-4 VisualПрофиль формата : Advanced Simple@L5Параметр BVOP формата : 1Параметр QPel формата : НетПараметр GMC формата : Без точки переходаПараметр матрицы формата : ВыборочнаяИдентификатор кодека : XVIDИдентификатор кодека/Подсказка : XviDПродолжительность : 1 ч. 28 м.Битрейт : 1919 Кбит/секШирина : 720 пикселейВысота : 304 пикселяСоотношение сторон : 2,35:1Частота кадров : 23,976 кадра/секЦветовое пространство : YUVСубдискретизация насыщенности : 4:2:0Битовая глубина : 8 битТип развёртки : ПрогрессивнаяМетод сжатия : С потерямиБит/(Пиксели*Кадры) : 0.366Размер потока : 1,19 Гбайт (81%)Библиотека кодирования : XviD 73
АудиоИдентификатор : 1Формат : AC-3Формат/Информация : Audio Coding 3Расширение режима : CM (complete main)Параметр Endianness формата : BigИдентификатор кодека : 2000Продолжительность : 1 ч. 28 м.Вид битрейта : ПостоянныйБитрейт : 448 Кбит/секКаналы : 6 каналовРасположение каналов : Front: L C R, Side: L R, LFEЧастота : 48,0 КГцБитовая глубина : 16 битМетод сжатия : С потерямиРазмер потока : 284 Мбайт (19%)Выравнивание : Разделение по промежуткамПродолжительность промежутка : 42 мс. (1,00 видеокадр)Время предзагрузки промежутка : 500 мс.

Скриншот c названием фильма

Скриншоты

[Профиль] [ЛС]

Создавать темы 12-Июн-2016 07:53 (спустя 7 месяцев 15 дней)

Топик был перенесен из форума Фильмы 2011 года в форум Фильмы 2010 года
Russian Mafia
 
Показать сообщения:    

Текущее время: Сегодня 02:20

Часовой пояс: GMT



Вы не можете начинать темы
Вы не можете отвечать на сообщения
Вы не можете редактировать свои сообщения
Вы не можете удалять свои сообщения
Вы не можете голосовать в опросах
Вы не можете прикреплять файлы к сообщениям
Вы не можете скачивать файлы