Такер и Дейл против Зла / Tucker & Dale vs Evil (Эли Крейг / Eli Craig) [2010, Канада, США, Ужасы, пародия, BDRip] AVO (Карповский) + Sub Rus + Original Eng

 
Автор Сообщение

TorrentFilm ®

Пол:

Стаж: 2 года

Сообщений: 7741



Награды: Нет

Торрент-статистика

Создавать темы 26-Дек-2014 02:00

[Цитировать]

Убойные каникулы / Tucker & Dale vs Evil- Страна: Канада, США
Жанр: Ужасы, комедия, пародия
Год выпуска: 2010
Продолжительность: 01:28:39
Перевод: Авторский (одноголосый закадровый) Карповский
Cубтитры: русские + английские (отключаемые)
Оригинальная аудиодорожка: английский
Режиссер: Эли Крейг / Eli Craig
В ролях: Тайлер Лэбин, Алан Тьюдик, Кэти Боуден, Джесси Мосс, Филип Грэйнджер, Брэндон Джей МакЛарен, Кристи Лэйн, Челан Симмонс, Трэвис Нельсон, Алекс Арсено-Описание: Группа студентов колледжа отправляется за город, чтобы вовсю оторваться на выходных: попить пивка, поплавать в озере и подышать чистым лесным воздухом. Но уже в первый день они сталкиваются с неотесанными фермерами Такером и Дэйлом, также решившими как следует оттянуться на природе. Приняв этих диковатых, но, в сущности, симпатичных ребят за "злобных местных", горожане решают дать деревенщине жесткий отпор. Но с каждым их шагом становится только хуже...--SAMPLE | TRAILER--Качество видео: HDRip Исходник: Ubojnye kanikuly.(2010).BDRip.1080p.(DVD9).[NoLimits-Team].mkv
Формат видео: AVI
Видео: 720x304 (2.35:1), 23.976fps, XviD, 1970kbps avg, 0,375 bit/pixel
Аудио 1: 48KHz, AC3, 6 ch, 192kbps avg [AVO - Карповский]
Аудио 2: 48KHz, AC3, 6 ch, 192kbps avg [Original ENG]

Пример субтитров

3400:03:17,179 --> 00:03:19,386СПРЕЙ ОТ НАСЕКОМЫХЧед, может взять ещё спрея?
3500:03:19,661 --> 00:03:22,573Чед!?
3600:03:23,661 --> 00:03:33,573Ручная пила, презервативы с лубрикантом...ручная дрель, женские прокладки, долото, кольцевая пила...
3700:03:35,063 --> 00:03:38,399- Господи!- Это я, идём отсюда!
3800:03:38,736 --> 00:03:41,570Здесь как-то жутко.
3900:03:48,407 --> 00:03:50,119Дэйл, нам ещё что-нибудь надо?
4000:03:50,121 --> 00:03:52,634Маринованные яйца, 6-ти фунтовая банка (2,8 кг).
4100:03:54,278 --> 00:03:58,373Ничего себе!Такер, видал что-нибудь подобное?
4200:03:58,968 --> 00:04:01,929Ничего особенного.
4300:04:02,085 --> 00:04:06,305- Обычные девчонки из колледжа.- Да, ничего обычного!
4400:04:06,306 --> 00:04:10,568Знаешь что, Дэйл?! Она обычный человек.Иди, да поговори с ней!

MediaInfo

GeneralComplete name : F:\A R C H I V E - [P L]\Tucker & Dale vs Evil (2010)\Tucker & Dale vs Evil (2010).aviFormat : AVIFormat/Info : Audio Video InterleaveFile size : 1.47 GiBDuration : 1h 28mnOverall bit rate : 2 368 KbpsWriting application : VirtualDubMod 1.5.10.3 | www.virtualdub-fr.org || (build 2550/release)Writing library : VirtualDubMod build 2550/release
VideoID : 0Format : MPEG-4 VisualFormat profile : Advanced Simple@L5Format settings, BVOP : 1Format settings, QPel : NoFormat settings, GMC : No warppointsFormat settings, Matrix : CustomCodec ID : XVIDCodec ID/Hint : XviDDuration : 1h 28mnBit rate : 1 970 KbpsWidth : 720 pixelsHeight : 304 pixelsDisplay aspect ratio : 2.35:1Frame rate : 23.976 fpsColor space : YUVChroma subsampling : 4:2:0Bit depth : 8 bitsScan type : ProgressiveCompression mode : LossyBits/(Pixel*Frame) : 0.375Stream size : 1.22 GiB (83%)Writing library : XviD 73
Audio #1ID : 1Format : AC-3Format/Info : Audio Coding 3Mode extension : CM (complete main)Format settings, Endianness : BigCodec ID : 2000Duration : 1h 28mnBit rate mode : ConstantBit rate : 192 KbpsChannel(s) : 6 channelsChannel positions : Front: L C R, Side: L R, LFESampling rate : 48.0 KHzBit depth : 16 bitsCompression mode : LossyStream size : 122 MiB (8%)Alignment : Split accross interleavesInterleave, duration : 42 ms (1.00 video frame)Interleave, preload duration : 500 ms
Audio #2ID : 2Format : AC-3Format/Info : Audio Coding 3Mode extension : CM (complete main)Format settings, Endianness : BigCodec ID : 2000Duration : 1h 28mnBit rate mode : ConstantBit rate : 192 KbpsChannel(s) : 6 channelsChannel positions : Front: L C R, Side: L R, LFESampling rate : 48.0 KHzBit depth : 16 bitsCompression mode : LossyStream size : 122 MiB (8%)Alignment : Split accross interleavesInterleave, duration : 42 ms (1.00 video frame)Interleave, preload duration : 500 ms

Скриншоты

[Профиль] [ЛС]

Создавать темы 06-Авг-2015 22:53 (спустя 7 месяцев 11 дней)

Топик был перенесен из форума Фильмы до 2014 года в форум Фильмы до 2012 года
sergej644
 

Создавать темы 12-Июн-2016 07:54 (спустя 1 год 5 месяцев)

Топик был перенесен из форума Фильмы 2011 года в форум Фильмы 2010 года
Russian Mafia
 
Показать сообщения:    

Текущее время: Сегодня 14:44

Часовой пояс: GMT



Вы не можете начинать темы
Вы не можете отвечать на сообщения
Вы не можете редактировать свои сообщения
Вы не можете удалять свои сообщения
Вы не можете голосовать в опросах
Вы не можете прикреплять файлы к сообщениям
Вы не можете скачивать файлы