Такая работа-3 (01-44 из 48) ( Владимир Койфман, Илья Шеховцов, Наталия Бучнева, Юрий Гурьянов , Дмитрий Изместьев, Сергей Мезенцев, Влад Ланне) [2016, детектив,криминал, SATRip-AVC]

 
Автор Сообщение

Aleksan66 ®

Стаж: 2 месяца 12 дней

Сообщений: 10



Награды: Нет

Торрент-статистика

Создавать темы 21-Сен-2016 14:13

[Цитировать]

Такая работа-3
--
Год выпуска: 2016
Производство: Россия, ООО "Анима Фильм Компани" по заказу ЗАО "Всемирные Русские Студии"
Жанр: мелодрама
Продолжительность: 00:40:00
Субтитры: нет

--
Режиссёр: Владимир Койфман, Илья Шеховцов, Наталия Бучнева, Юрий Гурьянов , Дмитрий Изместьев, Сергей Мезенцев, Влад Ланне
--
В ролях: Максим Меркулов , Ирина Шеянова, Дмитрий Паламарчук, Алексей Митин, Александр Саюталин, Оксана Базилевич, Игорь Головин, Сергей Кудрявцев, Александр Большаков, Вероника Норина, Глафира Козулина, Сергей Колос, Елена Яковлева, Мария Шукшина, Наталья Круглова, Игорь Николаев , Александр Демич , Олег Жилин, Марина Доможирова, Инна Горбикова, Наталья Мартынова, Марк Гаврилов, Арменак Назикян, Алла Данишевская, Юлия Денисова, Игорь Добряков, Ольга Терёшина, Татьяна Аптикеева, Вячеслав Коробицин, Михаил Соловьев, Руслан Барабанов, Игорь Колосов, Маргарита Бычкова.
--
Описание: Самая большая ответственность для полицейского — это расследование убийств. Убийство — не всегда дело рук маньяка. Преступником может стать каждый, когда ему страшно, когда он загнан в угол или хочет отомстить... Авторы исследуют мотивы, которые движут убийцами: кто они и почему идут на преступление. Расследованиями занимается четверка проницательных, амбициозных и очень обаятельных полицейских. Ни одно убийство не останется неразгаданным.Новый сезон прольет свет на тайны прошлого и принесет оперативникам двойной объем работы: помимо текущих расследований, они шаг за шагом будут распутывать дело, связанное с убийством отца Стрельниковой. Всю жизнь Женя была уверена, что двадцать лет назад ее отец умер от инфаркта, однако случайная улика рушит официальную версию. Стрельниковой ничего не остается, кроме как начать собственное расследование, и в этом ей поможет мама и давняя подруга отца – Яна Ковалева.
--

--
--
Качество: SATRip-AVC
Формат: MKV
Видео кодек: H.264
Аудио кодек: AC3
Видео: MPEG-4 AVC, 720х400,25fps,~1800 Кбит/сек,Bits/Pixel 0.250
Аудио: AC3, 48 kHz, ~192 Kbps, 2 канала

--

MI

Общее
Уникальный идентификатор : 199686765842617872196159228322831721339 (0x963A45ADCFEDA7AF83C0BD24B720E37B)
Полное имя : G:\Такая работа\01 серия_Такая работа_rip by_Aleksan55.mkv
Формат : Matroska
Версия формата : Version 2
Размер файла : 573 Мбайт
Продолжительность : 40 м.
Общий поток : 1994 Кбит/сек
Дата кодирования : UTC 2016-08-01 19:01:32
Программа кодирования : mkvmerge v7.8.0 ('River Man') 32bit built on Apr 3 2015 12:11:22
Библиотека кодирования : libebml v1.3.1 + libmatroska v1.4.2
Видео
Идентификатор : 1
Формат : AVC
Формат/Информация : Advanced Video Codec
Профиль формата : High@L4.1
Параметр CABAC формата : Да
Параметр ReFrames формата : 12 кадров
Идентификатор кодека : V_MPEG4/ISO/AVC
Продолжительность : 40 м.
Битрейт : 1800 Кбит/сек
Ширина : 720 пикселей
Высота : 400 пикселей
Соотношение сторон : 16:9
Режим частоты кадров : Постоянный
Частота кадров : 25,000 кадров/сек
Цветовое пространство : YUV
Субдискретизация насыщенности : 4:2:0
Битовая глубина : 8 бит
Тип развёртки : Прогрессивная
Бит/(Пиксели*Кадры) : 0.250
Размер потока : 506 Мбайт (88%)
Библиотека кодирования : x264 core 146 r2538 121396c
Настройки программы : cabac=1 / ref=12 / deblock=1:-3:-3 / analyse=0x3:0x133 / me=umh / subme=9 / psy=1 / psy_rd=1.00:0.25 / mixed_ref=0 / me_range=32 / chroma_me=1 / trellis=2 / 8x8dct=1 / cqm=0 / deadzone=21,11 / fast_pskip=1 / chroma_qp_offset=-4 / threads=2 / lookahead_threads=4 / sliced_threads=0 / nr=0 / decimate=1 / interlaced=0 / bluray_compat=0 / constrained_intra=0 / bframes=12 / b_pyramid=2 / b_adapt=2 / b_bias=0 / direct=3 / weightb=1 / open_gop=0 / weightp=2 / keyint=250 / keyint_min=25 / scenecut=40 / intra_refresh=0 / rc_lookahead=40 / rc=2pass / mbtree=1 / bitrate=1800 / ratetol=1.0 / qcomp=0.60 / qpmin=0 / qpmax=69 / qpstep=4 / cplxblur=20.0 / qblur=0.5 / ip_ratio=1.40 / aq=1:1.20
Default : Да
Forced : Нет
Цветовой диапазон : Limited
Основные цвета : BT.601 PAL
Характеристики трансфера : BT.470 System B, BT.470 System G
Коэффициенты матрицы : BT.601
Аудио
Идентификатор : 2
Формат : AC-3
Формат/Информация : Audio Coding 3
Расширение режима : CM (complete main)
Параметр Endianness формата : Big
Идентификатор кодека : A_AC3
Продолжительность : 40 м.
Вид битрейта : Постоянный
Битрейт : 192 Кбит/сек
Каналы : 2 канала
Расположение каналов : Front: L R
Частота : 48,0 КГц
Метод сжатия : С потерями
Размер потока : 55,1 Мбайт (10%)
Default : Да
Forced : Нет

Скриншоты

Внимание! Раздача ведётся путём добавления новых серий

Внимание! Раздача ведётся путём добавления новых серий; при каждом добавлении создаётся новый торрент.
Чтобы начать докачку новой серии, пользователям необходимо сделать следующее:
1. Остановить скачивание;
2. Удалить старый торрент у себя из клиента (старые серии удалять не надо);
3. Скачать новый торрент и запустить его у себя в клиенте вместо старого, при этом указать клиенту путь в старую папку куда и должно происходить скачивание новых серий. Ваш клиент при этом должен произвести хеширование (проверку) старой папки и будет докачивать только те серии, которых у вас ещё нет. Старые серии при этом не удаляются, а продолжают раздаваться! Eсли вы уже удалили старые серии, то предотвратить повторную закачку старых серий можно, отжав галочку в соответствующих местах при запуске нового торрента.
--Рекламы нет.Добавлена 44 серия.
[Профиль] [ЛС]
Показать сообщения:    

Текущее время: Сегодня 20:00

Часовой пояс: GMT



Вы не можете начинать темы
Вы не можете отвечать на сообщения
Вы не можете редактировать свои сообщения
Вы не можете удалять свои сообщения
Вы не можете голосовать в опросах
Вы не можете прикреплять файлы к сообщениям
Вы не можете скачивать файлы