Тайны прошлого (2 сезон: 1-6 серии из 6) / Secrets in the Dust (Кей Сиринг) [2010, Документально-постановочный, псевдоистория, исследования, истор, HDTVRip 720p]

 
Автор Сообщение

TorrentFilm ®

Пол:

Стаж: 2 года

Сообщений: 7741



Награды: Нет

Торрент-статистика

Создавать темы 30-Дек-2014 00:01

[Цитировать]

Тайны прошлого / Secrets in the Dust
Название: Тайны прошлого
Оригинальное название: Secrets in the Dust
Год выпуска: 2010
Жанр: Документальный, альтернативная история, псевдоистория, исследования
Выпущено: Франция, ZDF
Режиссер: Кей Сиринг
Тип релиза: HDTVRip (720p)
Контейнер: MKV
Видео: MPEG-4 AVC, 4500 Кбит/с, 1280x720
Аудио: MP2, 2 ch, 128 Кбит/с
Сэмпл: Скачать
Размер: 9.85 ГБ
Продолжительность: 6 x ~ 00:51:00
Перевод: Профессиональный одноголосый

Содержание серий:

1. Погружение в историю / A Dive into history
Средиземноморье - центральная транспортная артерия Римской империи. Огромное количество судов так и не дошли до цели. Подъём затонувших грузов позволяет лучше понять культуру прошлого. Июль 1908 года, прибрежные воды Туниса. Ныряльщики за губками работают по заданию Альфреда Мерлина. Молодой археолог проверяет свою догадку. Удача принесёт ему имя, неудача сделает посмешищем. Раскопки предстоит вести на дне моря...
2. Ацтеки. Жертвоприношения и наука / The Aztecs Sacrifice and Science
Ацтеки - народ Центральной Америки, подавлявший соседей и построивший империю на человеческих жертвоприношениях. Говорят, в их храмах кровь лилась рекой. Человеческие останки в нынешней Мексике как будто это подтверждают, но убедительных доводов в пользу кровожадности ацтеков пока не найдено.
3. Этруски. Слава предшественников римлян / The Etruscans. Glory to the Roman predecessors
Римская империя была последней супердержавой античного мира. Из Рима правили всем средиземноморским регионом. Римские архитекторы, инженеры и стратеги определяли облик этого огромного города. Но основали его не они. Если погрузиться вглубь веков, можно найти следы более ранней цивилизации, которую Рим пытался вычеркнуть из истории...
4. По следам Ледникового периода / In the wake of the Ice Age
1933 год. В поле под Гамбургом в Германии уже несколько месяцев ведутся раскопки, которыми руководит бывший электрик Альфред Руст. Они ищут следы пребывания здесь человека в конце последнего Ледникового периода. Смелое предположение. Но крупнейшие специалисты не допускают и тени сомнений: в этих северных районах человек выжить не мог. Однако в один из летних дней рабочие натыкаются на что-то в земле, из-за чего европейскую историю придётся переписывать...
5. Персия. Наследие огнепоклонников / Persia. The legacy of fire-worshippers
Два столетия правила древним миром эта сверхдержава - государство, объединявшее десятки народов. Первая в истории вселенская империя Персия. В 330 году до нашей эры Александр Македонский дотла сжёг её столицу - Персеполь.
6. Секреты Ангкора / Secrets Of Angkor
Древние святилища, построенные в XII веке, оставались заброшенными 700 лет. Но как выяснили археологи, Ангкор - нечто гораздо большее, чем только храмы. Недавно раскопанная система каналов и водохранилищ указывает на нахождение здесь некогда крупного города. Ученые ищут свидетельства существования города таких размеров, какие никому и не снились.

MediaInfo

GeneralUnique ID : 209533333742518588691890567008558829497 (0x9DA2A6F54816824CB95372557240CFB9)Complete name : M:\Торренты\Документальные\Тайны прошлого. Сезон 2\6. Secrets Of Angkor_720p.mkvFormat : MatroskaFormat version : Version 4 / Version 2File size : 1.62 GiBDuration : 50mn 13sOverall bit rate : 4 629 KbpsEncoded date : UTC 2014-12-25 11:42:26Writing application : mkvmerge v6.6.0 ('The Edge Of The In Between') built on Dec 1 2013 17:55:00Writing library : libebml v1.3.0 + libmatroska v1.4.1
VideoID : 1Format : AVCFormat/Info : Advanced Video CodecFormat profile : High@L4.1Format settings, CABAC : YesFormat settings, ReFrames : 9 framesCodec ID : V_MPEG4/ISO/AVCDuration : 50mn 13sBit rate : 4 500 KbpsWidth : 1 280 pixelsHeight : 720 pixelsDisplay aspect ratio : 16:9Frame rate mode : ConstantFrame rate : 25.000 fpsColor space : YUVChroma subsampling : 4:2:0Bit depth : 8 bitsScan type : ProgressiveBits/(Pixel*Frame) : 0.195Stream size : 1.55 GiB (95%)Writing library : x264 core 142 r2431 ac76440Encoding settings : cabac=1 / ref=9 / deblock=1:0:0 / analyse=0x3:0x133 / me=umh / subme=9 / psy=1 / psy_rd=1.00:0.10 / mixed_ref=1 / me_range=32 / chroma_me=1 / trellis=2 / 8x8dct=1 / cqm=0 / deadzone=21,11 / fast_pskip=1/ chroma_qp_offset=-3 / threads=6 / lookahead_threads=1 / sliced_threads=0 / nr=0 / decimate=0 / interlaced=0 / bluray_compat=0 / constrained_intra=0 / bframes=12 / b_pyramid=2 / b_adapt=2 / b_bias=0 / direct=3 / weightb=1 / open_gop=0 / weightp=2 / keyint=250 / keyint_min=23 / scenecut=40 / intra_refresh=0 / rc=2pass / mbtree=0 / bitrate=4500 / ratetol=1.0 / qcomp=0.60 / qpmin=0 / qpmax=69 / qpstep=4 / cplxblur=20.0 / qblur=0.5 / ip_ratio=1.40 / pb_ratio=1.30 / aq=1:1.00Language : EnglishDefault : YesForced : No
AudioID : 2Format : MPEG AudioFormat version : Version 1Format profile : Layer 2Codec ID : A_MPEG/L2Codec ID/Hint : MP2Duration : 50mn 13sBit rate mode : ConstantBit rate : 128 KbpsChannel(s) : 2 channelsSampling rate : 48.0 KHzCompression mode : LossyDelay relative to video : 35msStream size : 46.0 MiB (3%)Language : RussianDefault : YesForced : No

Скриншоты


[Профиль] [ЛС]
Кто просматривает тему:

Форум Тема Автор Размер
Фильмы (HD Rips | 720p, 1080p) 13 часов: Тайные солдаты Бенгази / 13 Hours (2016) BDRip 720p от HELLYWOOD | Лицензия Russian Mafia 7.95 GB
Фильмы (DVD 5/9) 13 часов: Тайные солдаты Бенгази / 13 Hours (2016) DVD5 | D достали все 4.37 GB
Фильмы (HD DVD, Blu-ray и BDRemux) 13 часов: Тайные солдаты Бенгази / 13 Hours: The Secret Soldiers of Benghazi (2016) BDRemux 1080p от ExKinoRay | Лицензия Russian Mafia 33.12 GB
Фильмы (HD Rips | 720p, 1080p) 13 часов: Тайные солдаты Бенгази / 13 Hours: The Secret Soldiers of Benghazi (2016) BDRip 1080p | Лицензия достали все 17.48 GB
Фильмы (HD Rips | 720p, 1080p) 13 часов: Тайные солдаты Бенгази / 13 Hours: The Secret Soldiers of Benghazi (2016) BDRip 1080p от ExKinoRay | Лицензия Russian Mafia 17.48 GB
Фильмы (HD Rips | 720p, 1080p) 13 часов: Тайные солдаты Бенгази / 13 Hours: The Secret Soldiers of Benghazi (2016) BDRip 720p | Лицензия достали все 8.77 GB
Фильмы (HD Rips | 720p, 1080p) 13 часов: Тайные солдаты Бенгази / 13 Hours: The Secret Soldiers of Benghazi (2016) BDRip 720p от ExKinoRay | Лицензия Russian Mafia 11.95 GB
Фильмы 2016 года 13 часов: Тайные солдаты Бенгази / 13 Hours: The Secret Soldiers of Benghazi (2016) BDRip | Лицензия достали все 1.46 GB
Показать сообщения:    

Текущее время: Сегодня 07:13

Часовой пояс: GMT



Вы не можете начинать темы
Вы не можете отвечать на сообщения
Вы не можете редактировать свои сообщения
Вы не можете удалять свои сообщения
Вы не можете голосовать в опросах
Вы не можете прикреплять файлы к сообщениям
Вы не можете скачивать файлы