Тайны острова Мако / Mako Mermaids [s03] (2016) WEBRip 720p от ExKinoRay | Alt Pro

 
Автор Сообщение

Russian Mafia ®

Пол:

Стаж: 1 год 8 месяцев

Сообщений: 4257



Награды: 10 (Подробнее)

Top Releaser 4 (Количество: 1) Top Releaser 2 (Количество: 1) Mega Seeder 2 (Количество: 1)
Торрент-статистика

Создавать темы 07-Авг-2016 17:14

[Цитировать]

Информация о фильме
Название: Тайны Острова Мако (Секрет, Русалки Мако), 3 сезон
Оригинальное название: Mako Mermaids
Год выпуска: 2016
Жанр: фэнтези, драма, мелодрама, комедия, приключения, семейный
Выпущено: Австралия, Jonathan M. Shiff Productions
Продолжительность: 16 x ~ 00:24:22
Режиссер: Грант Браун, Ивэн Кларри
В ролях: Ондина - Иззи (Изабел) Дюрант
Мимми - Элли Бертрам
Вейлан - Linda Ngo
Зак - Чай Ромруен
Эви - Джемма Форсайт
Кэм - Доминик Дойчер
Карли - Брук Николь Ли
Дэвид - Роуэн Хиллс
Крис - Тейлор Глокнер
Рита Сантос - Керит Эткинсон
О фильме: Австралийский молодёжный сериал, который пришёлся по вкусу так же подросткам в России продолжает интриговать своей сюжетной линией. В сериале присутствует волшебство и тайны, которые окружают обычного парня Зака. Ничего не подозревая, он отправляется на остров Мако, где планирует отдохнуть от городской суеты. Не зная, какие чудеса стоят за этим островом, он ничего не подозревая решил искупаться в полнолуние и тут же обретает удивительные свойства. Когда русалки, охраняющие остров, поняли, что нужно исправлять ситуацию, они превратились в девушек и начали охоту на Зака, что бы отнять у него волшебные способности...
3 сезон... появление дракона...

Содержание

s3e01. Визит с Востока
s3e02. Не поверишь, пока не увидишь
s3e03. Рецепт успеха
s3e04. Прочистка
s3e05. Магическая шкатулка
s3e06. Новые Начинания
s3e07. Неожиданный поворот
s3e08. Ход Дракона
s3e09. Удача Отвернулась
s3e10. Пустые Желания
s3e11. Найденная Потеря
s3e12. Проблема с доверием
s3e13. Умение отпускать
s3e14. Возраст превыше красоты
s3e15. Легенда Чаолонг
s3e16. Возвращение домой
Файл:
Формат: MKV
Качество: WEBRip 720p
Видео: MPEG-AVC, 1280x720, 25,000 кадр/с, ~ 2 231 Кбит/с
Аудио: 48,0 КГц, AC3, 2.0, 192 Кбит/с
Перевод: Любительский многоголосый: 1-16 серии - Alternative Production
Субтитры: нет

MI

s3e01. Визит с Востока. W-720p.-merci-.mkv
Формат : Matroska
Версия формата : Version 2
Размер файла : 431 Мбайт
Продолжительность : 24 м.
Режим общего битрейта : Переменный
Общий поток : 2472 Кбит/сек
Название фильма : Mako Mermaids / 3 сезон / 2016 / -merci-
Дата кодирования : UTC 2016-06-30 07:40:38
Программа кодирования : mkvmerge v5.8.0 ('No Sleep / Pillow') built on Sep 2 2012 15:37:04
Библиотека кодирования : libebml v1.2.3 + libmatroska v1.3.0
Видео
Идентификатор : 1
Формат : AVC
Формат/Информация : Advanced Video Codec
Профиль формата : Main@L3.1
Параметр CABAC формата : Да
Параметр ReFrames формата : 2 кадра
Параметр GOP формата : M=1, N=24
Идентификатор кодека : V_MPEG4/ISO/AVC
Продолжительность : 24 м.
Вид битрейта : Переменный
Битрейт : 2231 Кбит/сек
Максимальный битрейт : 3456 Кбит/сек
Ширина : 1280 пикселей
Высота : 720 пикселей
Соотношение сторон : 16:9
Режим частоты кадров : Постоянный
Частота кадров : 25,000 кадров/сек
Цветовое пространство : YUV
Субдискретизация насыщенности : 4:2:0
Битовая глубина : 8 бит
Тип развёртки : Прогрессивная
Бит/(Пиксели*Кадры) : 0.097
Размер потока : 389 Мбайт (90%)
Заголовок : s3e01. Визит с Востока. 720p.x264.-merci-
Язык : English
Default : Да
Forced : Нет
Аудио
Идентификатор : 2
Формат : AC-3
Формат/Информация : Audio Coding 3
Расширение режима : CM (complete main)
Параметр Endianness формата : Big
Идентификатор кодека : A_AC3
Продолжительность : 24 м.
Вид битрейта : Постоянный
Битрейт : 192 Кбит/сек
Каналы : 2 канала
Расположение каналов : Front: L R
Частота : 48,0 КГц
Частота кадров : 31,250 кадров/сек (1536 spf)
Метод сжатия : С потерями
Размер потока : 33,5 Мбайт (8%)
Заголовок : MVO (Alt Pro)
Язык : Russian
Default : Да
Forced : Нет

Скриншоты

Релиз от:
Автор релиза:
[Профиль] [ЛС]
Кто просматривает тему:

Форум Тема Автор Размер
Фильмы (HD Rips | 720p, 1080p) 13 часов: Тайные солдаты Бенгази / 13 Hours (2016) BDRip 720p от HELLYWOOD | Лицензия Russian Mafia 7.95 GB
Фильмы (DVD 5/9) 13 часов: Тайные солдаты Бенгази / 13 Hours (2016) DVD5 | D достали все 4.37 GB
Фильмы (HD DVD, Blu-ray и BDRemux) 13 часов: Тайные солдаты Бенгази / 13 Hours: The Secret Soldiers of Benghazi (2016) BDRemux 1080p от ExKinoRay | Лицензия Russian Mafia 33.12 GB
Фильмы (HD Rips | 720p, 1080p) 13 часов: Тайные солдаты Бенгази / 13 Hours: The Secret Soldiers of Benghazi (2016) BDRip 1080p | Лицензия достали все 17.48 GB
Фильмы (HD Rips | 720p, 1080p) 13 часов: Тайные солдаты Бенгази / 13 Hours: The Secret Soldiers of Benghazi (2016) BDRip 1080p от ExKinoRay | Лицензия Russian Mafia 17.48 GB
Фильмы (HD Rips | 720p, 1080p) 13 часов: Тайные солдаты Бенгази / 13 Hours: The Secret Soldiers of Benghazi (2016) BDRip 720p | Лицензия достали все 8.77 GB
Фильмы (HD Rips | 720p, 1080p) 13 часов: Тайные солдаты Бенгази / 13 Hours: The Secret Soldiers of Benghazi (2016) BDRip 720p от ExKinoRay | Лицензия Russian Mafia 11.95 GB
Фильмы 2016 года 13 часов: Тайные солдаты Бенгази / 13 Hours: The Secret Soldiers of Benghazi (2016) BDRip | Лицензия достали все 1.46 GB
Показать сообщения:    

Текущее время: Сегодня 01:26

Часовой пояс: GMT



Вы не можете начинать темы
Вы не можете отвечать на сообщения
Вы не можете редактировать свои сообщения
Вы не можете удалять свои сообщения
Вы не можете голосовать в опросах
Вы не можете прикреплять файлы к сообщениям
Вы не можете скачивать файлы