Тайны музеев / Museum Secrets Revealed [сезон 2 серии 2-8 из 8] (Vikctor Kushmaniuk, Brigitte Vincent) [2012 г., Документальный, история, искусство, HDTVRip 720p]

 
Автор Сообщение

skorpionN ®

Пол:

Стаж: 1 год 8 месяцев

Сообщений: 591



Награды: 4 (Подробнее)

Mega Seeder 3 (Количество: 1) Top Releaser 2 (Количество: 1) Mega Seeder 2 (Количество: 1)
Торрент-статистика

Создавать темы 14-Апр-2015 10:27

[Цитировать]

Тайны музеев / Museum Secrets Revealed [сезон 2 серии 2-8 из 8]
Год выпуска: 2012
Страна: Канада, Bell Broadcast and New Media Fund, Kensington Communications
Жанр: Документальный, история, искусство
Продолжительность: 7 x ~ 00:42:00
Перевод: Профессиональный (двухголосый), компания SDI Media по заказу ТПО "Ред Медиа"
Режиссер: Кентон Воган, Давид Нев, Мэри Энн Элтон, Ребекка Сноу, Дэвид Лэнгер, Питер Ди Финдли
Качество: HDTVRip 720p
Формат: MKV
Видео кодек: H.264
Аудио кодек: AC3
Видео: 1280x720 29.97fps 3500 Kbps
Аудио 1: (Rus) AC3, 2ch, 192 kbps, 48 kHz
Аудио 2: (En) AC3, 2ch, 192 kbps, 48 kHz
Доп. информация:
3 награды Gemini Awards 2011 (лучший научно-популярный цикл, Barbara Sears Award за лучший материал исследований, лучшая оригинальная музыка в документальном фильме);
2 награды History Makers Awards 2011 (лучший интерактивный проект, за инновации); приз Gemini Awards 2013 за лучший звук в документальных передачах.
Описание: Сериал "Тайны музеев" приглашает зрителей посетить величайшие хранилища памятников культуры со всего мира. Произведения искусства разных эпох и течений, гениальные авторы, непревзойдённые идеи корифеев и до сих пор неразгаданные тайны… Смелая попытка пролить свет на загадки самых известных музеев мира в этом документальном фильме.
Список серий:

01. Inside the State Hermitage Museum St.Petersberg - серия отсутствует

Нью-Йорк – город в трудолюбии и предприимчивости. В его сердце находится музей науки и гуманизма, полный тайн, мрачных и странных: это истории о преступлениях времен Мезозойской эры, о космических загадках, о посланиях некогда великой цивилизации. Эти тайны скрыты прямо перед нашими глазами в залах Американского музея естественной истории.

02. В залах Американского музея естественной истории / Inside the American Museum of Natural History (2012)

Лондон – город традиций и новшеств. В его сердце находится военный музей, полный тайн, мрачных и странных: это история разведчицы, которая выдержала страшные пытки; об ученом, заставившем замолчать пушки; о ядерном кошмаре и о том, как Уинстон Черчилль был на грани смерти. Тайны скрыты прямо перед нашими глазами в залах Имперского военного музея.

03. В залах Национального археологического музея Афин / Inside the National Archaeological Museum of Athens (2012)

В Национальном археологическом музее Афин хранятся многочисленные экспонаты, которые были найдены в течение многовековых археологических раскопок. Каждый экспонат может поведать свою собственную необычную историю. В центре одной из таких историй находится золотая маска, найденная Г. Шлиманом при раскопках Микен и объявленная им как посмертная маска царя Агамемнона. Подтверждают ли заключение Шлимана современные учёные? Голливудский Александр Македонский одет в бронзовые доспехи. Но учёные выяснили, что и он, и его воины носили нечто совсем иное... В музее есть загадочный предмет, получивший название "Антикитерский механизм". Исследователи постепенно открывают нам его тайны, расширяя наши представления о возможностях античной науки и техники.
Национальный археологический музей Афин

04. В залах Имперского военного музея / Inside the Imperial War Museum (2012)

Лондон – город традиций и новшеств. В его сердце находится военный музей, полный тайн, мрачных и странных: это история разведчицы, которая выдержала страшные пытки; об ученом, заставившем замолчать пушки; о ядерном кошмаре и о том, как Уинстон Черчилль был на грани смерти. Тайны скрыты прямо перед нашими глазами в залах Имперского военного музея.

05. В мексиканском Национальном антропологическом музее / Inside the National Museum of Anthropology, Mexico City (2012)

Мехико – бурлящий мегаполис, город истории и инноваций. В его сердце находится музей, полный тайн, мрачных и странных: это истории о жертвах, принесенных Солнцу, о жестоком древнем спорте, о пророчестве Хрустального Черепа и о погружении в подземные озера – эти тайны скрыты прямо перед нашими глазами в мексиканском Национальном антропологическом музее.

06. В зданиях берлинского Музейного острова / Inside the Pergamon and Neues Museums, Berlin (2012)

Берлин – город изысканной роскоши, город сожалений. В его сердце находится остров музеев, полных тайн, мрачных и странных: это история о загадочной красоте египетской царицы, о несчастье викингов, об удивительных свойствах колпака волшебника и о священном алтаре, поставленном на службу силам зла. Эти тайны скрыты прямо перед нашими глазами в зданиях берлинского Музейного острова.

07. В залах венского Музея истории искусств / IInside the Kunsthistorisches Museum, Vienna (2012)

Вена – город великолепия и изысканной красоты. В его сердце находится музей, полный тайн мрачных и странных: это истории о семейном проклятии, о магии алхимика, о средневековых спецэффектах и об исчезновении бесценного сокровища. Эти тайны скрыты прямо перед нашими глазами в залах венского Музея истории искусств.

08. В музее-дворце Топкапы / Inside the Topkapi Palace Museum, Istanbul (2012)

Стамбул – город мечетей и базаров. В его сердце находится музей, полный тайн, мрачных и странных: это истории об орудиях разрушения, о древних высоких технологиях, о смертельном угощении и о безумном владельце гарема – эти тайны скрыты прямо перед нашими глазами в музее-дворце Топкапы

Скриншоты


MediaInfo:

Format : Matroska
File size : 1.10 GiB
Duration : 41mn 42s
Overall bit rate : 3 776 Kbps
Encoded date : UTC 2014-07-25 15:19:05
Writing application : mkvmerge v7.0.0 ('Where We Going') 64bit built on Jun 9 2014 15:16:27
Writing library : libebml v1.3.0 + libmatroska v1.4.1
Video #1
ID : 1
Format : AVC
Format/Info : Advanced Video Codec
Format profile : High@L3.1
Format settings, CABAC : Yes
Format settings, ReFrames : 3 frames
Codec ID : V_MPEG4/ISO/AVC
Duration : 41mn 42s
Bit rate mode : Constant
Bit rate : 3 317 Kbps
Nominal bit rate : 3 600 Kbps / 3 600 Kbps
Width : 1 280 pixels
Height : 720 pixels
Display aspect ratio : 16:9
Frame rate : 23.976 fps
Standard : NTSC
Color space : YUV
Chroma subsampling : 4:2:0
Bit depth : 8 bits
Scan type : Progressive
Bits/(Pixel*Frame) : 0.150
Stream size : 989 MiB (88%)
Writing library : x264 core 114
Encoding settings : cabac=1 / ref=3 / deblock=1:0:0 / analyse=0x3:0x113 / me=hex / subme=7 / psy=1 / psy_rd=1.00:0.00 / mixed_ref=1 / me_range=16 / chroma_me=1 / trellis=1 / 8x8dct=1 / cqm=2 / deadzone=21,11 / fast_pskip=1 / chroma_qp_offset=-2 / threads=6 / sliced_threads=0 / slices=1 / nr=0 / decimate=1 / interlaced=0 / constrained_intra=0 / bframes=3 / b_pyramid=0 / b_adapt=1 / b_bias=0 / direct=1 / weightb=1 / open_gop=0 / weightp=2 / keyint=250 / keyint_min=23 / scenecut=40 / intra_refresh=0 / rc_lookahead=40 / rc=cbr / mbtree=1 / bitrate=3600 / ratetol=1.0 / qcomp=0.60 / qpmin=3 / qpmax=69 / qpstep=4 / vbv_maxrate=3600 / vbv_bufsize=3588 / nal_hrd=cbr / ip_ratio=1.40 / aq=1:1.00
Color primaries : BT.709-5, BT.1361, IEC 61966-2-4, SMPTE RP177
Transfer characteristics : BT.709-5, BT.1361
Matrix coefficients : BT.709-5, BT.1361, IEC 61966-2-4 709, SMPTE RP177
Audio #2
ID : 2
Format : AC-3
Format/Info : Audio Coding 3
Mode extension : CM (complete main)
Codec ID : A_AC3
Duration : 41mn 42s
Bit rate mode : Constant
Bit rate : 192 Kbps
Channel(s) : 2 channels
Channel positions : Front: L R
Sampling rate : 48.0 KHz
Bit depth : 16 bits
Compression mode : Lossy
Stream size : 57.3 MiB (5%)
Language : Russian
Audio #3
ID : 3
Format : AC-3
Format/Info : Audio Coding 3
Mode extension : CM (complete main)
Codec ID : A_AC3
Duration : 41mn 42s
Bit rate mode : Constant
Bit rate : 192 Kbps
Channel(s) : 2 channels
Channel positions : Front: L R
Sampling rate : 48.0 KHz
Bit depth : 16 bits
Compression mode : Lossy
Stream size : 57.3 MiB (5%)
Language : English
Тайны музеев / Museum Secrets Revealed [сезон 1 серии 1-6 из 6]
Тайны музеев / Museum Secrets Revealed [сезон 2 серии 2-8 из 8]
Тайны музеев / Museum Secrets Revealed [сезон 3 серии 1-8 из 8]
[Профиль] [ЛС]

KiruhaDelMar

Стаж: 1 год 8 месяцев

Сообщений: 247



Награды: Нет

Торрент-статистика

Создавать темы 16-Апр-2015 18:24 (спустя 2 дня 7 часов)

[Цитировать]

было ж уже
[Профиль] [ЛС]
Кто просматривает тему:

Форум Тема Автор Размер
Фильмы (HD Rips | 720p, 1080p) 13 часов: Тайные солдаты Бенгази / 13 Hours (2016) BDRip 720p от HELLYWOOD | Лицензия Russian Mafia 7.95 GB
Фильмы (DVD 5/9) 13 часов: Тайные солдаты Бенгази / 13 Hours (2016) DVD5 | D достали все 4.37 GB
Фильмы (HD DVD, Blu-ray и BDRemux) 13 часов: Тайные солдаты Бенгази / 13 Hours: The Secret Soldiers of Benghazi (2016) BDRemux 1080p от ExKinoRay | Лицензия Russian Mafia 33.12 GB
Фильмы (HD Rips | 720p, 1080p) 13 часов: Тайные солдаты Бенгази / 13 Hours: The Secret Soldiers of Benghazi (2016) BDRip 1080p | Лицензия достали все 17.48 GB
Фильмы (HD Rips | 720p, 1080p) 13 часов: Тайные солдаты Бенгази / 13 Hours: The Secret Soldiers of Benghazi (2016) BDRip 1080p от ExKinoRay | Лицензия Russian Mafia 17.48 GB
Фильмы (HD Rips | 720p, 1080p) 13 часов: Тайные солдаты Бенгази / 13 Hours: The Secret Soldiers of Benghazi (2016) BDRip 720p | Лицензия достали все 8.77 GB
Фильмы (HD Rips | 720p, 1080p) 13 часов: Тайные солдаты Бенгази / 13 Hours: The Secret Soldiers of Benghazi (2016) BDRip 720p от ExKinoRay | Лицензия Russian Mafia 11.95 GB
Фильмы 2016 года 13 часов: Тайные солдаты Бенгази / 13 Hours: The Secret Soldiers of Benghazi (2016) BDRip | Лицензия достали все 1.46 GB
Показать сообщения:    

Текущее время: Сегодня 20:24

Часовой пояс: GMT



Вы не можете начинать темы
Вы не можете отвечать на сообщения
Вы не можете редактировать свои сообщения
Вы не можете удалять свои сообщения
Вы не можете голосовать в опросах
Вы не можете прикреплять файлы к сообщениям
Вы не можете скачивать файлы