Тайны, которые мы храним / The Secrets We Keep (2020) WEB-DL 1080p | L

 
Author Message

BOSS ®

Gender:

Longevity: 6 years

Posts: 14809

Location: ODESSA



: 22 ()

Mega Seeder 2 (1) Mega Seeder 3 (1) Top Seeder 3 (1)
Торрент-статистика

Post 17-Oct-2020 18:28

[Quote]

Информация о фильме
Название: Тайны, которые мы храним
Оригинальное название: The Secrets We Keep
Год выхода: 2020
Жанр: Триллер, драма
Режиссер: Юваль Адлер
В ролях: Нуми Рапас, Юэль Киннаман, Крис Мессина, Джексон Дин Винсент, Эми Саймец, Милли Матловски, Мэдисон Пейдж Джонс, Джефф Поуп, Дэвид Мальдонадо, Эд Аматрудо
О фильме: Майа и Льюис - супружеская пара, пережившая холокост во время Второй мировой войны. После освобождения русскими концлагеря, в котором находилась Майа, они переехали в США и поселились в пригороде Нью-Йорка. Там они вместе работают в больнице и растят сына. Спустя 15 лет бывшая узница узнаёт в одном из прохожих немецкого офицера, мучившего её в Румынии. У неё началась бессонница, во время приступов которой женщина твёрдо решает во что бы то ни стало отомстить за перенесённые в молодости страдания

Страна: США
Студия: AGC Studios, Di Bonaventura Pictures, Echo Lake Entertainment
Продолжительность: 01:38:19
Перевод: Любительский многоголосый | @MUZOBOZ@
Файл
Кодек: MPEG-4 AVC
Качество: WEB-DL 1080p
Видео: 7702 Кбит/с, 1920x1080, 23.976 кадр/с
Звук:
Аудио #1: AC3, 48 Гц, 192 Кбит/сек, 2 ch (L + R) | MVO | @MUZOBOZ@
Аудио #2: AC3, 48 Гц, 384 Кбит/сек, 6 ch (L C R, + L R, LFE) | Английский
Субтитры: Английские

MI

Общее
Уникальный идентификатор : 75543231825939538904300527443289678938 (0x38D518E3DD500B0992C95E85F6E9A45A)
Полное имя : D:ТоррентыThe.Secrets.We.Keep.2020.1080p.WEBRip.DD5.1.x264-CMThe.Secrets.We.Keep.2020.RU.ENG.x264.WEB-DL-1080p-MediaBit.mkv
Формат : Matroska
Версия формата : Version 4
Размер файла : 5,69 Гбайт
Продолжительность : 1 ч. 38 м.
Общий поток : 8 280 Кбит/сек
Название фильма : Секреты, которые мы храним / The Secrets We Keep (2020)
Дата кодирования : UTC 2020-10-17 08:34:12
Программа кодирования : mkvmerge v25.0.0 ('Prog Noir') 64-bit
Библиотека кодирования : libebml v1.3.6 + libmatroska v1.4.9
Видео
Идентификатор : 1
Формат : AVC
Формат/Информация : Advanced Video Codec
Профиль формата : High@L4
Настройки формата : CABAC / 2 Ref Frames
Параметр CABAC формата : Да
Параметр RefFrames формата : 2 кадра
Идентификатор кодека : V_MPEG4/ISO/AVC
Продолжительность : 1 ч. 38 м.
Битрейт : 7 702 Кбит/сек
Ширина : 1 920 пикселей
Высота : 1 080 пикселей
Соотношение сторон : 16:9
Режим частоты кадров : Постоянный
Частота кадров : 23,976 (24000/1001) кадра/сек
Цветовое пространство : YUV
Субдискретизация насыщенности : 4:2:0
Битовая глубина : 8 бит
Тип развёртки : Прогрессивная
Бит/(Пиксели*Кадры) : 0.155
Размер потока : 5,29 Гбайт (93%)
Заголовок : CM
Библиотека кодирования : x264 core 155 r2901 7d0ff22
Язык : English
Default : Да
Forced : Нет
Цветовой диапазон : Limited
Основные цвета : BT.709
Характеристики трансфера : BT.709
Коэффициенты матрицы : BT.709
Аудио #1
Идентификатор : 2
Формат : AC-3
Формат/Информация : Audio Coding 3
Коммерческое название : Dolby Digital
Идентификатор кодека : A_AC3
Продолжительность : 1 ч. 38 м.
Вид битрейта : Постоянный
Битрейт : 192 Кбит/сек
Каналы : 2 канала
Channel layout : L R
Частота : 48,0 КГц
Частота кадров : 31,250 кадров/сек (1536 SPF)
Метод сжатия : С потерями
Размер потока : 135 Мбайт (2%)
Заголовок : MVO [@MUZOBOZ@] MediaBit
Язык : Russian
Service kind : Complete Main
Default : Да
Forced : Нет
Аудио #2
Идентификатор : 3
Формат : AC-3
Формат/Информация : Audio Coding 3
Коммерческое название : Dolby Digital
Идентификатор кодека : A_AC3
Продолжительность : 1 ч. 38 м.
Вид битрейта : Постоянный
Битрейт : 384 Кбит/сек
Каналы : 6 каналов
Channel layout : L R C LFE Ls Rs
Частота : 48,0 КГц
Частота кадров : 31,250 кадров/сек (1536 SPF)
Метод сжатия : С потерями
Размер потока : 270 Мбайт (5%)
Язык : English
Service kind : Complete Main
Default : Нет
Forced : Нет
Текст
Идентификатор : 4
Формат : UTF-8
Идентификатор кодека : S_TEXT/UTF8
Идентификатор кодека/Информация : UTF-8 Plain Text
Продолжительность : 1 ч. 29 м.
Битрейт : 46 бит/сек
Count of elements : 1001
Размер потока : 30,4 Кбайт (0%)
Язык : English
Default : Нет
Forced : Нет

Скриншоты

[Profile] [PM]
Кто просматривает тему:

Forum Topic Author Size
Фильмы (HD Rips | 720p, 1080p) 13 часов: Тайные солдаты Бенгази / 13 Hours (2016) BDRip 720p от HELLYWOOD | Лицензия Russian Mafia 7.95 GB
Фильмы (DVD 5/9) 13 часов: Тайные солдаты Бенгази / 13 Hours (2016) DVD5 | D достали все 4.37 GB
Фильмы (HD DVD, Blu-ray и BDRemux) 13 часов: Тайные солдаты Бенгази / 13 Hours: The Secret Soldiers of Benghazi (2016) BDRemux 1080p от ExKinoRay | Лицензия Russian Mafia 33.12 GB
Фильмы (HD Rips | 720p, 1080p) 13 часов: Тайные солдаты Бенгази / 13 Hours: The Secret Soldiers of Benghazi (2016) BDRip 1080p | Лицензия достали все 17.48 GB
Фильмы (HD Rips | 720p, 1080p) 13 часов: Тайные солдаты Бенгази / 13 Hours: The Secret Soldiers of Benghazi (2016) BDRip 1080p от ExKinoRay | Лицензия Russian Mafia 17.48 GB
Фильмы (HD Rips | 720p, 1080p) 13 часов: Тайные солдаты Бенгази / 13 Hours: The Secret Soldiers of Benghazi (2016) BDRip 720p | Лицензия достали все 8.77 GB
Фильмы (HD Rips | 720p, 1080p) 13 часов: Тайные солдаты Бенгази / 13 Hours: The Secret Soldiers of Benghazi (2016) BDRip 720p от ExKinoRay | Лицензия Russian Mafia 11.95 GB
Фильмы 2016 года 13 часов: Тайные солдаты Бенгази / 13 Hours: The Secret Soldiers of Benghazi (2016) BDRip | Лицензия достали все 1.46 GB
Display posts from previous:    

The time now is: Today 11:04

All times are GMT



You cannot post new topics in this forum
You cannot reply to topics in this forum
You cannot edit your posts in this forum
You cannot delete your posts in this forum
You cannot vote in polls in this forum
You cannot attach files in this forum
You cannot download files in this forum