Тайны истории: Неразгаданные тайны Великой Китайской стены / Secret History: Secrets of the Great Wall of China (Ian Bremner) [2014 г., Документальный, археология, история, исследования, HDTVRip 720p]

 
Автор Сообщение

skorpionN ®

Пол:

Стаж: 2 года 3 месяца

Сообщений: 719



Награды: 4 (Подробнее)

Mega Seeder 3 (Количество: 1) Mega Seeder 1 (Количество: 1) Top Releaser 2 (Количество: 1)
Торрент-статистика

Создавать темы 11-Ноя-2015 22:00

[Цитировать]

Тайны истории: Неразгаданные тайны Великой Китайской стены / Secret History: Secrets of the Great Wall of China
Год выпуска: 2014
Страна: Великобритания, Lion Production for Cannel 4
Жанр: Документальный, археология, история, исследования
Продолжительность: 00:47:23
Перевод: Профессиональный (одноголосый), переведено и озвучено на студии "SDI Media", перевод Н. Сергеевой, текст читает Михаил Карасиков
Режиссер: Ian Bremner
Описание: Великая Китайская стена – грандиознейшее сооружение в истории человечества, однако она представляет собой нечто большее, чем просто кирпичи и цемент. На протяжении тысячелетий она хранит в себе множество секретов: никто не знает, сколько ей лет, кто и почему ее построил. В фильме используются дроны, с помощью которых производилась съемка местности, чтобы показать все величие этого уникального сооружения. Используя современные технологии, ученые расскажут о том, что секретные ингредиенты, которые использовались для постройки стены, можно найти на любой кухне.
Качество: HDTVRip 720[
Формат: MKV
Видео кодек: H.264
Аудио кодек: AC3
Видео: 1280x720 25fps 3200 kbps
Аудио 1: (Rus) AC3, 2ch, 192 kbps, 48 kHz
Аудио 2: (En) AC3, 2ch, 192 kbps, 48 kHz

Скриншоты


MediaInfo:

Format : Matroska
Format version : Version 4 / Version 2
File size : 1.13 GiB
Duration : 47mn 22s
Overall bit rate mode : Constant
Overall bit rate : 3 411 Kbps
Encoded date : UTC 2015-11-11 21:39:28
Writing application : mkvmerge v7.3.0 ('Nouages') 64bit built on Oct 22 2014 18:53:34
Writing library : libebml v1.3.0 + libmatroska v1.4.1
DURATION : 00:47:22.560000000
NUMBER_OF_FRAMES : 88830
NUMBER_OF_BYTES : 68221440
_STATISTICS_WRITING_APP : mkvmerge v7.3.0 ('Nouages') 64bit built on Oct 22 2014 18:53:34
_STATISTICS_WRITING_DATE_UTC : 2015-11-11 21:39:28
_STATISTICS_TAGS : BPS DURATION NUMBER_OF_FRAMES NUMBER_OF_BYTES
Video
ID : 1
Format : AVC
Format/Info : Advanced Video Codec
Format profile : High@L4.1
Format settings, CABAC : Yes
Format settings, ReFrames : 3 frames
Codec ID : V_MPEG4/ISO/AVC
Duration : 47mn 22s
Bit rate mode : Constant
Bit rate : 2 959 Kbps
Nominal bit rate : 3 200 Kbps / 3 200 Kbps
Width : 1 280 pixels
Height : 720 pixels
Display aspect ratio : 16:9
Frame rate mode : Constant
Frame rate : 25.000 fps
Standard : NTSC
Color space : YUV
Chroma subsampling : 4:2:0
Bit depth : 8 bits
Scan type : Progressive
Bits/(Pixel*Frame) : 0.128
Stream size : 1 003 MiB (87%)
Writing library : x264 core 114
Encoding settings : cabac=1 / ref=3 / deblock=1:0:0 / analyse=0x3:0x113 / me=hex / subme=7 / psy=1 / psy_rd=1.00:0.00 / mixed_ref=1 / me_range=16 / chroma_me=1 / trellis=1 / 8x8dct=1 / cqm=2 / deadzone=21,11 / fast_pskip=1 / chroma_qp_offset=-2 / threads=6 / sliced_threads=0 / slices=1 / nr=0 / decimate=1 / interlaced=0 / constrained_intra=0 / bframes=3 / b_pyramid=0 / b_adapt=1 / b_bias=0 / direct=1 / weightb=1 / open_gop=0 / weightp=2 / keyint=250 / keyint_min=25 / scenecut=40 / intra_refresh=0 / rc_lookahead=40 / rc=cbr / mbtree=1 / bitrate=3200 / ratetol=1.0 / qcomp=0.60 / qpmin=3 / qpmax=69 / qpstep=4 / vbv_maxrate=3200 / vbv_bufsize=3194 / nal_hrd=cbr / ip_ratio=1.40 / aq=1:1.00
Language : English
Default : Yes
Forced : No
Color primaries : BT.709
Transfer characteristics : BT.709
Matrix coefficients : BT.709
Color range : Limited
Audio #1
ID : 2
Format : AC-3
Format/Info : Audio Coding 3
Mode extension : CM (complete main)
Format settings, Endianness : Big
Codec ID : A_AC3
Duration : 47mn 22s
Bit rate mode : Constant
Bit rate : 192 Kbps
Channel(s) : 2 channels
Channel positions : Front: L R
Sampling rate : 48.0 KHz
Bit depth : 16 bits
Compression mode : Lossy
Stream size : 65.1 MiB (6%)
Language : Russian
Default : No
Forced : No
Audio #2
ID : 3
Format : AC-3
Format/Info : Audio Coding 3
Mode extension : CM (complete main)
Format settings, Endianness : Big
Codec ID : A_AC3
Duration : 47mn 22s
Bit rate mode : Constant
Bit rate : 192 Kbps
Channel(s) : 2 channels
Channel positions : Front: L R
Sampling rate : 48.0 KHz
Bit depth : 16 bits
Compression mode : Lossy
Stream size : 65.1 MiB (6%)
Language : English
Default : Yes
Forced : No
[Профиль] [ЛС]
Кто просматривает тему:

Форум Тема Автор Размер
365 365: Тайны истории / Secrets d'Histoire [сезон 4 выпуски 2,4 из 7] (Жан-Кристоф де Ревьер / Jean-Christophe de Revière) [2011 г., Документальный, история, научно-популярный, SATRip] skorpionN 2.74 GB
365 365: Тайны истории / Secrets d'Histoire [сезон 6 выпуски 2-4,7,12 из 12] (Жан-Кристоф де Ревьер / Jean-Christophe de Revière) [2012 г., Документальный, история, научно-популярный, SATRip] skorpionN 6.49 GB
365 365: Тайны истории / Secrets d'Histoire [сезон 7 выпуск 1,4,8,9 из 14] (Жан-Кристоф де Ревьер / Jean-Christophe de Revière) [2013 г., Документальный, история, научно-популярный, SATRip] skorpionN 5.21 GB
365 365: Тайны истории / Secrets d'Histoire [сезон 8 выпуски 3,12,14-16 из 16] (Жан-Кристоф де Ревьер / Jean-Christophe de Revière) [2014 г., Документальный, история, научно-популярный, SATRip] skorpionN 7.33 GB
BBC BBC: Тайны взросления / Secret Life of Growing Up [серии 1-2 из 2] (Luce Wiles) [2016 г., Документальный, научно-популярный, SATRip] skorpionN 1.43 GB
BBC BBC: Тайные правила современной жизни: Алгоритмы / The Secret Rules of Modern Living: Algorithms (David Briggs) [2015 г., Документальный, научно-познавательный, математика, HDTVRip 720p] skorpionN 1.59 GB
National Geographic NG: Разгадка египетских тайн / Egypt unwrapped [серии 1,2,4,5,8 из 8] (Дуг Ховарт / Doug Howard, Дэвид Ли / David Lee) [2008 г., Документальный, история, археология, исследования, мифы, заг... skorpionN 5.57 GB
Travel Travel: Музейные тайны / Mysteries at the Museum [сезон 10 серии 1-10, 12,13 из 13] (Remy Weber, Sterling Milan, Nick Zeig-Owens) [2016 г., Документально-постановочный, история, а... skorpionN 10.71 GB
Показать сообщения:    

Текущее время: Сегодня 19:23

Часовой пояс: GMT



Вы не можете начинать темы
Вы не можете отвечать на сообщения
Вы не можете редактировать свои сообщения
Вы не можете удалять свои сообщения
Вы не можете голосовать в опросах
Вы не можете прикреплять файлы к сообщениям
Вы не можете скачивать файлы