Тайны древности / Ancient Mysteries [серии 1-6 из 6] (Tom Fowlie) [2016 г., Документальный, игровой, исследования, археология, HDTVRip 720p]

 
Author Message

skorpionN ®

Gender:

Longevity: 4 years 6 months

Posts: 944



: 4 ()

Top Releaser 2 (1) Mega Seeder 1 (1) Mega Seeder 3 (1)
Торрент-статистика

Post 30-Nov-2016 20:13

[Quote]

Тайны древности / Ancient Mysteries [серии 1-6 из 6]
Год выпуска: 2016
Страна: Великобритания, Blink Entertainment Ltf
Жанр: Документальный, игровой, исследования, археология
Продолжительность: 6x~00:45:04
Перевод: Профессиональный (двухголосый), переведено и озвучено на студии "SDI Media", по заказу ТПО Red Media
Режиссер: Tom Fowlie
Описание: Сокровища прошлого хранят свои секреты, которые попытается разгадать группа ученых. Надо ли говорить о том, что эти энтузиасты планируют применить в своей работе всё имеющееся в их распоряжении ультрасовременное оборудование и по ходу дела раскроют телезрителям новые величайшие тайны о жизни далёких предков и мироздании в целом.
Список серий:
01. В поисках Атлантиды / The Search for Atlantis
02. Таинственный город пирамид Америки / America's Hidden Pyramid City
03. В поисках Святого Грааля / The Truth About the Holy Grail
04. Карта сокровищ Мёртвого моря (Секреты Медных свитков) / The Dead Sea Treasure Map (Secrets The Copper Scroll)
05. Затерянный город фараонов / The Lost City of the Pharaohs
06. Гробница Тутанхамона: тайная комната / King Tut's Tomb: The Hidden Chamber

Качество: HDTVRip 720p
Формат: MKV
Видео кодек: H.264
Аудио кодек: AC3
Видео: 1280x720 25.00 fps 3200 kbps
Аудио 1: (Rus) AC3 2ch, 48kHz, 192 kbps
Аудио 2: (En) AC3 2ch, 48kHz, 192 kbps

Скриншоты


MediaInfo:

Format : Matroska
Format version : Version 4 / Version 2
File size : 1.13 GiB
Duration : 45 min 3 s
Overall bit rate mode : Variable
Overall bit rate : 3 584 kb/s
Encoded date : UTC 2016-11-30 19:28:30
Writing application : mkvmerge v7.3.0 ('Nouages') 64bit built on Oct 22 2014 18:53:34
Writing library : libebml v1.3.0 + libmatroska v1.4.1
Video
ID : 1
Format : AVC
Format/Info : Advanced Video Codec
Format profile : High@L4.1
Format settings, CABAC : Yes
Format settings, ReFrames : 3 frames
Codec ID : V_MPEG4/ISO/AVC
Duration : 45 min 3 s
Bit rate mode : Variable
Bit rate : 3 200 kb/s
Maximum bit rate : 8 000 kb/s
Width : 1 280 pixels
Height : 720 pixels
Display aspect ratio : 16:9
Frame rate mode : Constant
Frame rate : 25.000 FPS
Standard : NTSC
Color space : YUV
Chroma subsampling : 4:2:0
Bit depth : 8 bits
Scan type : Progressive
Bits/(Pixel*Frame) : 0.139
Stream size : 1.01 GiB (89%)
Writing library : x264 core 114
Encoding settings : cabac=1 / ref=3 / deblock=1:0:0 / analyse=0x3:0x113 / me=hex / subme=7 / psy=1 / psy_rd=1.00:0.00 / mixed_ref=1 / me_range=16 / chroma_me=1 / trellis=1 / 8x8dct=1 / cqm=2 / deadzone=21,11 / fast_pskip=1 / chroma_qp_offset=-4 / threads=6 / sliced_threads=0 / slices=1 / nr=0 / decimate=1 / interlaced=0 / constrained_intra=0 / bframes=3 / b_pyramid=0 / b_adapt=1 / b_bias=0 / direct=1 / weightb=1 / open_gop=0 / weightp=2 / keyint=250 / keyint_min=25 / scenecut=40 / intra_refresh=0 / rc_lookahead=40 / rc=2pass / mbtree=1 / bitrate=3200 / ratetol=1.0 / qcomp=0.60 / qpmin=5 / qpmax=69 / qpstep=4 / cplxblur=20.0 / qblur=0.5 / vbv_maxrate=8000 / vbv_bufsize=7995 / nal_hrd=vbr / ip_ratio=1.40 / aq=1:1.00
Default : Yes
Forced : No
Color range : Limited
Color primaries : BT.709
Transfer characteristics : BT.709
Matrix coefficients : BT.709
Audio #1
ID : 2
Format : AC-3
Format/Info : Audio Coding 3
Mode extension : CM (complete main)
Format settings, Endianness : Big
Codec ID : A_AC3
Duration : 45 min 3 s
Bit rate mode : Constant
Bit rate : 192 kb/s
Channel(s) : 2 channels
Channel positions : Front: L R
Sampling rate : 48.0 kHz
Frame rate : 31.250 FPS (1536 spf)
Compression mode : Lossy
Stream size : 61.9 MiB (5%)
Language : Russian
Default : Yes
Forced : No
Audio #2
ID : 3
Format : AC-3
Format/Info : Audio Coding 3
Mode extension : CM (complete main)
Format settings, Endianness : Big
Codec ID : A_AC3
Duration : 45 min 3 s
Bit rate mode : Constant
Bit rate : 192 kb/s
Channel(s) : 2 channels
Channel positions : Front: L R
Sampling rate : 48.0 kHz
Frame rate : 31.250 FPS (1536 spf)
Compression mode : Lossy
Stream size : 61.9 MiB (5%)
Language : English
Default : No
Forced : Yes

Внимание:

Раздача ведётся путём добавления новых серий; при каждом добавлении создаётся новый торрент. Чтобы начать докачку новой серии, пользователям необходимо сделать следующее:
- Остановить скачивание.
- Удалить старый торрент у себя из клиента (старые серии удалять не надо).
- Скачать новый торрент и запустить его у себя в клиенте вместо старого, при этом указать клиенту путь в старую папку куда и должно происходить скачивание новых серий.
Добавлено:
01. В поисках Атлантиды / The Search for Atlantis
03. В поисках Святого Грааля / The Truth About the Holy Grail


Last edited by skorpionN on 2017-01-19 15:05; edited 8 times in total
[Profile] [PM]

KiruhaDelMar

Longevity: 4 years 5 months

Posts: 319



: None

Торрент-статистика

Post 30-Nov-2016 20:19 (after 6 minutes)

[Quote]

Тока тихо al
[Profile] [PM]

skorpionN ®

Gender:

Longevity: 4 years 6 months

Posts: 944



: 4 ()

Top Releaser 2 (1) Mega Seeder 3 (1) Mega Seeder 2 (1)
Торрент-статистика

Post 30-Nov-2016 20:24 (after 4 minutes)

[Quote]

105480Тока тихо al
А чего молчиш когда спрашиваю?
[Profile] [PM]

KiruhaDelMar

Longevity: 4 years 5 months

Posts: 319



: None

Торрент-статистика

Post 30-Nov-2016 20:39 (after 15 minutes)

[Quote]

Да у меня голова забита еще ты со своей математикой, освобожусь подумаю
[Profile] [PM]

KiruhaDelMar

Longevity: 4 years 5 months

Posts: 319



: None

Торрент-статистика

Post 30-Nov-2016 20:52 (after 13 minutes)

[Quote]

Сочинял текст пол часа, потом тут написал и вырубил браузер, вместе с "поэмой" пипец
[Profile] [PM]

skorpionN ®

Gender:

Longevity: 4 years 6 months

Posts: 944



: 4 ()

Mega Seeder 3 (1) Mega Seeder 1 (1) Mega Seeder 2 (1)
Торрент-статистика

Post 30-Nov-2016 21:10 (after 17 minutes)

[Quote]

KiruhaDelMar, кому сочинял? Опять кляузничаеш?
[Profile] [PM]

Post 15-Sep-2017 12:19 (after 9 months 14 days)

Топик был перенесен из форума Секреты / Тайны в форум Архив
skorpionN
 

skorpionN ®

Gender:

Longevity: 4 years 6 months

Posts: 944



: 4 ()

Mega Seeder 3 (1) Mega Seeder 1 (1) Mega Seeder 2 (1)
Торрент-статистика

Post 15-Sep-2017 12:21 (after 9 months 14 days)

[Quote]

Поглощено в пользу http://torrentfilm.net/viewtopic.php?t=81246
[Profile] [PM]
Кто просматривает тему:

Forum Topic Author Size
Фильмы (HD Rips | 720p, 1080p) 13 часов: Тайные солдаты Бенгази / 13 Hours (2016) BDRip 720p от HELLYWOOD | Лицензия Russian Mafia 7.95 GB
Фильмы (DVD 5/9) 13 часов: Тайные солдаты Бенгази / 13 Hours (2016) DVD5 | D достали все 4.37 GB
Фильмы (HD DVD, Blu-ray и BDRemux) 13 часов: Тайные солдаты Бенгази / 13 Hours: The Secret Soldiers of Benghazi (2016) BDRemux 1080p от ExKinoRay | Лицензия Russian Mafia 33.12 GB
Фильмы (HD Rips | 720p, 1080p) 13 часов: Тайные солдаты Бенгази / 13 Hours: The Secret Soldiers of Benghazi (2016) BDRip 1080p | Лицензия достали все 17.48 GB
Фильмы (HD Rips | 720p, 1080p) 13 часов: Тайные солдаты Бенгази / 13 Hours: The Secret Soldiers of Benghazi (2016) BDRip 1080p от ExKinoRay | Лицензия Russian Mafia 17.48 GB
Фильмы (HD Rips | 720p, 1080p) 13 часов: Тайные солдаты Бенгази / 13 Hours: The Secret Soldiers of Benghazi (2016) BDRip 720p | Лицензия достали все 8.77 GB
Фильмы (HD Rips | 720p, 1080p) 13 часов: Тайные солдаты Бенгази / 13 Hours: The Secret Soldiers of Benghazi (2016) BDRip 720p от ExKinoRay | Лицензия Russian Mafia 11.95 GB
Фильмы 2016 года 13 часов: Тайные солдаты Бенгази / 13 Hours: The Secret Soldiers of Benghazi (2016) BDRip | Лицензия достали все 1.46 GB
Display posts from previous:    

The time now is: Today 02:39

All times are GMT



You cannot post new topics in this forum
You cannot reply to topics in this forum
You cannot edit your posts in this forum
You cannot delete your posts in this forum
You cannot vote in polls in this forum
You cannot attach files in this forum
You cannot download files in this forum