Тайны древних цивилизаций / The Ancient Life (Алекс Джоуи / Alex Jouve) [2011, Документальный, история, археология, путешествия, HDTVRip 720p]

 
Автор Сообщение

TorrentFilm ®

Пол:

Стаж: 2 года

Сообщений: 7741



Награды: Нет

Торрент-статистика

Создавать темы 22-Апр-2015 00:05

[Цитировать]

Тайны древних цивилизаций / The Ancient Life
Год выпуска: 2011
Страна: США
Студия: JWM Productions
Жанр: Документальный, история, археология, путешествия
Продолжительность: 6 x ~ 00:46:00
Перевод: Студийный (одноголосый закадровый)
Доп. инфо о переводе: студия TUTTI Records (ТУТТИ Рекордс) по заказу студии Ю7
Режиссер: Алекс Джоуи / Alex Jouve
Ведущий: Брит Итон / Brit Eaton

Содержание серий:

01. Под Великой Пирамидой / Beneath the Great Pyramid
Для Египетских пирамид способ воздвижения уже изучен, а вот истинное их предназначение до сих пор вызывает споры. Правда ли что они обеспечивают передачу энергии между Землей и Космосом?
02. Камбоджа. Ангкор-Ват / Secrets of Angkor Wat
Ангко́р-Ват— «храм Ангкор» — гигантский индуистский храмовый комплекс в Камбодже, посвящённый богу Вишну. Является одним из крупнейших из когда-либо созданных культовых сооружений и одним из важнейших археологических памятников мира. Построен в первой половине XII века во время правления короля Сурьявармана II. В составе градостроительного комплекса Ангкор включён в список Всемирного наследия ЮНЕСКО
03. Кровавый мир древних ацтеков / Aztec Temples of Blood
Их называли одной из самой жестокой древней цивилизации в истории человечества. Известно, что они приносили массовые человеческие жертвы...
04. Тайна городов Майя / Mayan Mysteries
Расследование об исчезновении двух древних городов Майя
05. Мумии и Мачу-Пикчу / Mummies and Machu Picchu
Веками тайна окутывало могущественных инков с их древними ритуалами. Это была богатая и могущественная империя, пока ихняя цивилизация была не уничтожена...
06. Тайна острова Пасхи / Mystery of Easter Island
На побережье острова Пасхи стоят двадцатиметровые каменные статуи — моаи — в виде человеческой головы и туловища. Они изготавливались на каменоломне в центре острова и, согласно легенде, магическим образом доходили до своих мест самостоятельно. Есть ли научное объяснение тому, как в 13-15 веках местное население могло переместить и установить эти огромные статуи? Почему их строительство было внезапно прекращено?
Доп. информация: Исходник, запись со спутникового канала " Eureka HD"
Описание: Машина времени отсчитывает секунды до старта, чтобы отправить зрителя в далекое прошлое. В этом сериале мы будем расследовать тайны древних цивилизаций, некогда процветавших и оставивших после себя величайшее наследие - предмет восхищения для туристов и источник нескончаемых изысканий для ученых со всего мира. На этот раз поиски возглавит ведущий программы Брит Итон - исследователь и путешественник. Его цель - найти ответы на самые интригующие загадки прошлого. Чтобы реализовать свои амбициозные планы, Брит устремляется к непосредственным источникам загадок и хранителям тайн - великим сооружениям, что были возведены в эпоху расцвета той или иной цивилизации. Непередаваемые чувства возникают, когда стоишь рядом с исполинской пирамидой Хеопса или идешь по улицам разрушенного города Помпеи. Исторический экскурс в прошлое позволит получить представление о событиях давно минувших дней и подготовит почву для размышления о главных вопросах. На побережье острова Пасхи стоят двадцатиметровые каменные статуи - моаи - в виде человеческой головы и туловища. Они изготавливались на каменоломне в центре острова и, согласно легенде, магическим образом доходили до своих мест самостоятельно. Есть ли научное объяснение тому, как в 13-15 веках местное население могло переместить и установить эти огромные статуи? Почему их строительство было внезапно прекращено? Что нам может поведать еще одно величайшее сооружение - храм Ангкор-Ват в Камбодже? Зрители смогут посетить руины комплекса культовых сооружений Темпло Майор, построенного ацтеками, разгадать тайны наследия великой цивилизации Майя и города Мачу-Пикчу, который называют «потерянным городом инков». Программа интересна тем, что расследование тайн происходит шаг за шагом, заставляя зрителей размышлять и делать предположения. На исследование каждого сооружения у Брита уходит несколько дней — он общается с учеными и историками, вместе с ними несколько раз приходит на объект, чтобы найти разгадку... или обнаружить новые секреты! Не оставлены без внимания и местные традиции: Брит попробует расколоть массивный камень одним движением, как это делали древнеегипетские строители, и освоит технику боевых искусств кхмерских племен. Поистине, этот сериал - драгоценная коллекция истории древних цивилизаций! Секреты реставрации
Сэмпл: http://multi-up.com/1044888
Тип релиза: HDTVRip 720p
Контейнер: MKV
Видео: MPEG-4 AVC, 5100 Кбит/с, 1280x720
Аудио: AC3, 6 ch, 448 Кбит/с

MediaInfo

GeneralUnique ID : 186939527693816880867748704663340926761 (0x8CA33E509C3120E3AF2CA862D1C94729)Complete name : F:\Наладки\Тайны древних цивилизаций\4\Тайна городов Майя_720p.mkvFormat : MatroskaFormat version : Version 4 / Version 2File size : 1.70 GiBDuration : 43mn 51sOverall bit rate : 5 550 KbpsEncoded date : UTC 2015-04-17 20:16:48Writing application : mkvmerge v6.6.0 ('The Edge Of The In Between') built on Dec 1 2013 17:55:00Writing library : libebml v1.3.0 + libmatroska v1.4.1
VideoID : 1Format : AVCFormat/Info : Advanced Video CodecFormat profile : High@L4.1Format settings, CABAC : YesFormat settings, ReFrames : 9 framesCodec ID : V_MPEG4/ISO/AVCDuration : 43mn 51sBit rate : 5 100 KbpsWidth : 1 280 pixelsHeight : 720 pixelsDisplay aspect ratio : 16:9Frame rate mode : ConstantFrame rate : 25.000 fpsColor space : YUVChroma subsampling : 4:2:0Bit depth : 8 bitsScan type : ProgressiveBits/(Pixel*Frame) : 0.221Stream size : 1.53 GiB (90%)Writing library : x264 core 146 r2538 121396cEncoding settings : cabac=1 / ref=9 / deblock=1:0:0 / analyse=0x3:0x133 / me=umh / subme=9 / psy=1 / psy_rd=1.00:0.10 / mixed_ref=1 / me_range=32 / chroma_me=1 / trellis=2 / 8x8dct=1 / cqm=0 / deadzone=21,11 / fast_pskip=1 / chroma_qp_offset=-3 / threads=6 / lookahead_threads=1 / sliced_threads=0 / nr=0 / decimate=0 / interlaced=0 / bluray_compat=0 / constrained_intra=0 / bframes=9 / b_pyramid=2 / b_adapt=2 / b_bias=0 / direct=3 / weightb=1 / open_gop=0 / weightp=2 / keyint=250 / keyint_min=23 / scenecut=40 / intra_refresh=0 / rc=2pass / mbtree=0 / bitrate=5100 / ratetol=1.0 / qcomp=0.60 / qpmin=0 / qpmax=69 / qpstep=4 / cplxblur=20.0 / qblur=0.5 / ip_ratio=1.40 / pb_ratio=1.30 / aq=1:1.00Language : EnglishDefault : YesForced : No
AudioID : 2Format : AC-3Format/Info : Audio Coding 3Mode extension : CM (complete main)Format settings, Endianness : BigCodec ID : A_AC3Duration : 43mn 51sBit rate mode : ConstantBit rate : 448 KbpsChannel(s) : 6 channelsChannel positions : Front: L C R, Side: L R, LFESampling rate : 48.0 KHzBit depth : 16 bitsCompression mode : LossyStream size : 141 MiB (8%)Language : RussianDefault : YesForced : No

Скриншоты

Автор рипа kyba6
[Профиль] [ЛС]
Кто просматривает тему:

Форум Тема Автор Размер
Фильмы (HD Rips | 720p, 1080p) 13 часов: Тайные солдаты Бенгази / 13 Hours (2016) BDRip 720p от HELLYWOOD | Лицензия Russian Mafia 7.95 GB
Фильмы (DVD 5/9) 13 часов: Тайные солдаты Бенгази / 13 Hours (2016) DVD5 | D достали все 4.37 GB
Фильмы (HD DVD, Blu-ray и BDRemux) 13 часов: Тайные солдаты Бенгази / 13 Hours: The Secret Soldiers of Benghazi (2016) BDRemux 1080p от ExKinoRay | Лицензия Russian Mafia 33.12 GB
Фильмы (HD Rips | 720p, 1080p) 13 часов: Тайные солдаты Бенгази / 13 Hours: The Secret Soldiers of Benghazi (2016) BDRip 1080p | Лицензия достали все 17.48 GB
Фильмы (HD Rips | 720p, 1080p) 13 часов: Тайные солдаты Бенгази / 13 Hours: The Secret Soldiers of Benghazi (2016) BDRip 1080p от ExKinoRay | Лицензия Russian Mafia 17.48 GB
Фильмы (HD Rips | 720p, 1080p) 13 часов: Тайные солдаты Бенгази / 13 Hours: The Secret Soldiers of Benghazi (2016) BDRip 720p | Лицензия достали все 8.77 GB
Фильмы (HD Rips | 720p, 1080p) 13 часов: Тайные солдаты Бенгази / 13 Hours: The Secret Soldiers of Benghazi (2016) BDRip 720p от ExKinoRay | Лицензия Russian Mafia 11.95 GB
Фильмы 2016 года 13 часов: Тайные солдаты Бенгази / 13 Hours: The Secret Soldiers of Benghazi (2016) BDRip | Лицензия достали все 1.46 GB
Показать сообщения:    

Текущее время: Сегодня 02:16

Часовой пояс: GMT



Вы не можете начинать темы
Вы не можете отвечать на сообщения
Вы не можете редактировать свои сообщения
Вы не можете удалять свои сообщения
Вы не можете голосовать в опросах
Вы не можете прикреплять файлы к сообщениям
Вы не можете скачивать файлы