Тайны древних цивилизаций / The Ancient Life (2 серии из 6) (Paul Donvito) [2011, Документальный цикл, HDTV 1080i, RU]

 
Автор Сообщение

TorrentFilm ®

Пол:

Стаж: 2 года

Сообщений: 7741



Награды: Нет

Торрент-статистика

Создавать темы 05-Мар-2015 00:01

[Цитировать]

Тайны древних цивилизаций / The Ancient Life
Год выпуска: 2011
Страна: США
Студия: JWM Productions
Жанр: Документальный цикл
Продолжительность: 00:45:05
Перевод: Студийный (одноголосый закадровый)
Доп. инфо о переводе: Студия Ю7
Русские субтитры: нет
Режиссер: Paul Donvito
Описание: Машина времени отсчитывает секунды до старта, чтобы отправить зрителя в далекое прошлое. В этом сериале мы будем расследовать тайны древних цивилизаций, некогда процветавших и оставивших после себя величайшее наследие — предмет восхищения для туристов и источник нескончаемых изысканий для ученых со всего мира. На этот раз поиски возглавит ведущий программы Брит Итон — исследователь и путешественник. Его цель — найти ответы на самые интригующие загадки прошлого.
Чтобы реализовать свои амбициозные планы, Брит устремляется к непосредственным источникам загадок и хранителям тайн — великим сооружениям, что были возведены в эпоху расцвета той или иной цивилизации. Непередаваемые чувства возникают, когда стоишь рядом с исполинской пирамидой Хеопса или идешь по улицам разрушенного города Помпеи. Исторический экскурс в прошлое позволит получить представление о событиях давно минувших дней и подготовит почву для размышления о главных вопросах.
На побережье острова Пасхи стоят двадцатиметровые каменные статуи — моаи — в виде человеческой головы и туловища. Они изготавливались на каменоломне в центре острова и, согласно легенде, магическим образом доходили до своих мест самостоятельно. Есть ли научное объяснение тому, как в 13-15 веках местное население могло переместить и установить эти огромные статуи? Почему их строительство было внезапно прекращено?
Что нам может поведать еще одно величайшее сооружение — храм Ангкор-Ват в Камбодже? Зрители смогут посетить руины комплекса культовых сооружений Темпло Майор, построенного ацтеками, разгадать тайны наследия великой цивилизации Майя и города Мачу-Пикчу, который называют «потерянным городом инков».
Программа интересна тем, что расследование тайн происходит шаг за шагом, заставляя зрителей размышлять и делать предположения. На исследование каждого сооружения у Брита уходит несколько дней — он общается с учеными и историками, вместе с ними несколько раз приходит на объект, чтобы найти разгадку... или обнаружить новые секреты! Не оставлены без внимания и местные традиции: Брит попробует расколоть массивный камень одним движением, как это делали древнеегипетские строители, и освоит технику боевых искусств кхмерских племен. Поистине, этот сериал — драгоценная коллекция истории древних цивилизаций!
Секреты реставрации

04.03.2015 _ добавил выпуск: 04. Кровавый мир древних ацтеков,
перезаливаем

01. Пирамиды

Для Египетских пирамид способ воздвижения уже изучен, а вот истинное их предназначение до сих пор вызывает споры. Правда ли что они обеспечивают передачу энергии между Землей и Космосом?

02. Остров Пасхи

На побережье острова Пасхи стоят двадцатиметровые каменные статуи — моаи — в виде человеческой головы и туловища. Они изготавливались на каменоломне в центре острова и, согласно легенде, магическим образом доходили до своих мест самостоятельно. Есть ли научное объяснение тому, как в 13-15 веках местное население могло переместить и установить эти огромные статуи? Почему их строительство было внезапно прекращено?

03. Камбоджа. Ангкор-Ват

Ангко́р-Ват— «храм Ангкор» — гигантский индуистский храмовый комплекс в Камбодже, посвящённый богу Вишну. Является одним из крупнейших из когда-либо созданных культовых сооружений и одним из важнейших археологических памятников мира. Построен в первой половине XII века во время правления короля Сурьявармана II. В составе градостроительного комплекса Ангкор включён в список Всемирного наследия ЮНЕСКО

04. Кровавый мир древних ацтеков

Доп. информация: Ведущий: Brit Eaton
Сэмпл: http://multi-up.com/1035457
Тип релиза: HDTV 1080i
Контейнер: MKV
Видео: AVC, 1920x1080, (16:9), 25 fps, 7.3 Mbps, 0.142 bits/pixel
Аудио: русский MP2, 48 kHz, 2ch, 320 kbps

MediaInfo

GeneralUnique ID : 212686842931891168519048828087880108465 (0xA001FEF71A035241B8F7B80728E3C9B1)Complete name : C:\Тайны древних цивилизаций_HDTV 1080i_RU_-dean10\01. Пирамиды.mkvFormat : MatroskaFormat version : Version 4 / Version 2File size : 2.46 GiBDuration : 45mn 5sOverall bit rate : 7 823 KbpsEncoded date : UTC 2015-02-27 13:52:17Writing application : mkvmerge v7.6.0 ('Garden of Dreams') 64bit built on Feb 8 2015 13:04:34Writing library : libebml v1.3.1 + libmatroska v1.4.2DURATION : 00:45:05.112000000NUMBER_OF_FRAMES : 112713NUMBER_OF_BYTES : 108204480_STATISTICS_WRITING_APP : mkvmerge v7.6.0 ('Garden of Dreams') 64bit built on Feb 8 2015 13:04:34_STATISTICS_WRITING_DATE_UTC : 2015-02-27 13:52:17_STATISTICS_TAGS : BPS DURATION NUMBER_OF_FRAMES NUMBER_OF_BYTES
VideoID : 1Format : AVCFormat/Info : Advanced Video CodecFormat profile : High@L4.0Format settings, CABAC : YesFormat settings, ReFrames : 3 framesCodec ID : V_MPEG4/ISO/AVCDuration : 45mn 5sBit rate : 7 348 KbpsWidth : 1 920 pixelsHeight : 1 080 pixelsDisplay aspect ratio : 16:9Frame rate mode : ConstantFrame rate : 25.000 fpsStandard : ComponentColor space : YUVChroma subsampling : 4:2:0Bit depth : 8 bitsScan type : MBAFFScan order : Bottom Field FirstBits/(Pixel*Frame) : 0.142Stream size : 2.31 GiB (94%)Default : YesForced : NoColor primaries : BT.709Transfer characteristics : BT.709Matrix coefficients : BT.709Color range : Limited
AudioID : 2Format : MPEG AudioFormat version : Version 1Format profile : Layer 2Codec ID : A_MPEG/L2Codec ID/Hint : MP2Duration : 45mn 5sBit rate mode : ConstantBit rate : 320 KbpsChannel(s) : 2 channelsSampling rate : 48.0 KHzCompression mode : LossyStream size : 103 MiB (4%)Language : EnglishDefault : YesForced : No

Скриншоты

[Профиль] [ЛС]
Кто просматривает тему:

Форум Тема Автор Размер
Фильмы (HD Rips | 720p, 1080p) 13 часов: Тайные солдаты Бенгази / 13 Hours (2016) BDRip 720p от HELLYWOOD | Лицензия Russian Mafia 7.95 GB
Фильмы (DVD 5/9) 13 часов: Тайные солдаты Бенгази / 13 Hours (2016) DVD5 | D достали все 4.37 GB
Фильмы (HD DVD, Blu-ray и BDRemux) 13 часов: Тайные солдаты Бенгази / 13 Hours: The Secret Soldiers of Benghazi (2016) BDRemux 1080p от ExKinoRay | Лицензия Russian Mafia 33.12 GB
Фильмы (HD Rips | 720p, 1080p) 13 часов: Тайные солдаты Бенгази / 13 Hours: The Secret Soldiers of Benghazi (2016) BDRip 1080p | Лицензия достали все 17.48 GB
Фильмы (HD Rips | 720p, 1080p) 13 часов: Тайные солдаты Бенгази / 13 Hours: The Secret Soldiers of Benghazi (2016) BDRip 1080p от ExKinoRay | Лицензия Russian Mafia 17.48 GB
Фильмы (HD Rips | 720p, 1080p) 13 часов: Тайные солдаты Бенгази / 13 Hours: The Secret Soldiers of Benghazi (2016) BDRip 720p | Лицензия достали все 8.77 GB
Фильмы (HD Rips | 720p, 1080p) 13 часов: Тайные солдаты Бенгази / 13 Hours: The Secret Soldiers of Benghazi (2016) BDRip 720p от ExKinoRay | Лицензия Russian Mafia 11.95 GB
Фильмы 2016 года 13 часов: Тайные солдаты Бенгази / 13 Hours: The Secret Soldiers of Benghazi (2016) BDRip | Лицензия достали все 1.46 GB
Показать сообщения:    

Текущее время: Сегодня 08:12

Часовой пояс: GMT



Вы не можете начинать темы
Вы не можете отвечать на сообщения
Вы не можете редактировать свои сообщения
Вы не можете удалять свои сообщения
Вы не можете голосовать в опросах
Вы не можете прикреплять файлы к сообщениям
Вы не можете скачивать файлы