Тайны дикой природы / Secrets Of The Wild [серии 1-3 из 3] (Линетт Сингер / Lynette Singer) [2013, Документальный, флора, фауна, HDTVRip] VО (АРК ТВ)

 
Автор Сообщение

Один 777 ®

Пол:

Стаж: 1 год 8 месяцев

Сообщений: 458

Откуда: Луцк



Награды: 7 (Подробнее)

Mega Releaser 1 (Количество: 1) Mega Seeder 1 (Количество: 1) Mega Releaser 2 (Количество: 1)
Торрент-статистика

Создавать темы 15-Окт-2016 15:11

[Цитировать]

Тайны дикой природы / Secrets Of The Wild
Серии 1-3 из 3
Год выпуска: 2013
Страна: Великобритания / Spring Films Ltd
Жанр: Документальный, флора, фауна
Продолжительность: 3 x ~ 00:44:00
Перевод: Студийный (одноголосый закадровый) АРК ТВ
Субтитры: нет
Режиссер: Линетт Сингер / Lynette Singer
Описание: Десятилетиями люди пытались приблизиться к диким животным. Но когда мы смотрели на них, они тоже смотрели на нас. Теперь мы можем незаметно наблюдать за ними в естественных условиях. Новейшие технологии позволяют заглянуть в частную жизнь животных так, что они не узнают об этом. Мы можем снимать из далека, даже с воздуха. Камеры с дистанционным управлением принимают разные обличия и формы. Что бы подобраться к ним поближе можно снимать где угодно, когда угодно, как угодно и днём и ночью. Преданные своему делу натуралисты и создатели фильмов смело идут навстречу трудностям и опасностям, что бы открыть для нас самые сокровенные тайны дикой природы.
Сэмпл: http://sendfile.su/1274569

качество: HDTVRip
формат: AVI
Видео кодек: XviD
Аудио кодек: AC3
Видео: 720x400 (1.80:1), 25 fps, XviD build 73 ~1382 kbps avg, 0.19 bit/pixel
Аудио: 48 kHz, AC3 Dolby Digital, 2/0 (L,R) ch, ~192 kbps

Список серий

01. На просторах / Exposed
02. Затерянные миры / Lost Worlds
03. В водных глубинах / Going Deep

MediaInfo

Общее
Полное имя : D:\Tajny.dikoj.priody.2013. HDTVRip.[Один 777]\01.avi
Формат : AVI
Формат/Информация : Audio Video Interleave
Размер файла : 498 Мбайт
Продолжительность : 43 м.
Общий поток : 1584 Кбит/сек
Программа кодирования : VirtualDubMod 1.5.10.3 | www.virtualdub-fr.org || (build 2550/release)
Библиотека кодирования : VirtualDubMod build 2550/release
Видео
Идентификатор : 0
Формат : MPEG-4 Visual
Профиль формата : Advanced Simple@L5
Параметр BVOP формата : 1
Параметр QPel формата : Нет
Параметр GMC формата : Без точки перехода
Параметр матрицы формата : Default (H.263)
Идентификатор кодека : XVID
Идентификатор кодека/Подсказка : XviD
Продолжительность : 43 м.
Битрейт : 1382 Кбит/сек
Ширина : 720 пикселей
Высота : 400 пикселей
Соотношение сторон : 16:9
Частота кадров : 25,000 кадров/сек
Цветовое пространство : YUV
Субдискретизация насыщенности : 4:2:0
Битовая глубина : 8 бит
Тип развёртки : Прогрессивная
Метод сжатия : С потерями
Бит/(Пиксели*Кадры) : 0.192
Размер потока : 435 Мбайт (87%)
Библиотека кодирования : XviD 73
Аудио
Идентификатор : 1
Формат : AC-3
Формат/Информация : Audio Coding 3
Расширение режима : CM (complete main)
Параметр Endianness формата : Big
Идентификатор кодека : 2000
Продолжительность : 43 м.
Вид битрейта : Постоянный
Битрейт : 192 Кбит/сек
Каналы : 2 канала
Расположение каналов : Front: L R
Частота : 48,0 КГц
Частота кадров : 31,250 кадров/сек (1536 spf)
Метод сжатия : С потерями
Размер потока : 60,4 Мбайт (12%)
Выравнивание : Разделение по промежуткам
Продолжительность промежутка : 40 мс. (1,00 видеокадр)
Время предзагрузки промежутка : 500 мс.

Скриншот c названием фильма

Скриншоты

[Профиль] [ЛС]
Кто просматривает тему:

Форум Тема Автор Размер
Фильмы (HD Rips | 720p, 1080p) 13 часов: Тайные солдаты Бенгази / 13 Hours (2016) BDRip 720p от HELLYWOOD | Лицензия Russian Mafia 7.95 GB
Фильмы (DVD 5/9) 13 часов: Тайные солдаты Бенгази / 13 Hours (2016) DVD5 | D достали все 4.37 GB
Фильмы (HD DVD, Blu-ray и BDRemux) 13 часов: Тайные солдаты Бенгази / 13 Hours: The Secret Soldiers of Benghazi (2016) BDRemux 1080p от ExKinoRay | Лицензия Russian Mafia 33.12 GB
Фильмы (HD Rips | 720p, 1080p) 13 часов: Тайные солдаты Бенгази / 13 Hours: The Secret Soldiers of Benghazi (2016) BDRip 1080p | Лицензия достали все 17.48 GB
Фильмы (HD Rips | 720p, 1080p) 13 часов: Тайные солдаты Бенгази / 13 Hours: The Secret Soldiers of Benghazi (2016) BDRip 1080p от ExKinoRay | Лицензия Russian Mafia 17.48 GB
Фильмы (HD Rips | 720p, 1080p) 13 часов: Тайные солдаты Бенгази / 13 Hours: The Secret Soldiers of Benghazi (2016) BDRip 720p | Лицензия достали все 8.77 GB
Фильмы (HD Rips | 720p, 1080p) 13 часов: Тайные солдаты Бенгази / 13 Hours: The Secret Soldiers of Benghazi (2016) BDRip 720p от ExKinoRay | Лицензия Russian Mafia 11.95 GB
Фильмы 2016 года 13 часов: Тайные солдаты Бенгази / 13 Hours: The Secret Soldiers of Benghazi (2016) BDRip | Лицензия достали все 1.46 GB
Показать сообщения:    

Текущее время: Сегодня 23:31

Часовой пояс: GMT



Вы не можете начинать темы
Вы не можете отвечать на сообщения
Вы не можете редактировать свои сообщения
Вы не можете удалять свои сообщения
Вы не можете голосовать в опросах
Вы не можете прикреплять файлы к сообщениям
Вы не можете скачивать файлы