Тайны дикой природы / Secrets Of The Wild [серии 1-3 из 3] (Линетт Сингер / Lynette Singer) [2013, Документальный, флора, фауна, HDTVRip] VО (АРК ТВ)

 
Автор Сообщение

Один 777 ®

Пол:

Стаж: 2 года 3 месяца

Сообщений: 503

Откуда: Луцк



Награды: 7 (Подробнее)

Mega Seeder 3 (Количество: 1) Mega Seeder 2 (Количество: 1) Mega Seeder 1 (Количество: 1)
Торрент-статистика

Создавать темы 15-Окт-2016 15:11

[Цитировать]

Тайны дикой природы / Secrets Of The Wild
Серии 1-3 из 3
Год выпуска: 2013
Страна: Великобритания / Spring Films Ltd
Жанр: Документальный, флора, фауна
Продолжительность: 3 x ~ 00:44:00
Перевод: Студийный (одноголосый закадровый) АРК ТВ
Субтитры: нет
Режиссер: Линетт Сингер / Lynette Singer
Описание: Десятилетиями люди пытались приблизиться к диким животным. Но когда мы смотрели на них, они тоже смотрели на нас. Теперь мы можем незаметно наблюдать за ними в естественных условиях. Новейшие технологии позволяют заглянуть в частную жизнь животных так, что они не узнают об этом. Мы можем снимать из далека, даже с воздуха. Камеры с дистанционным управлением принимают разные обличия и формы. Что бы подобраться к ним поближе можно снимать где угодно, когда угодно, как угодно и днём и ночью. Преданные своему делу натуралисты и создатели фильмов смело идут навстречу трудностям и опасностям, что бы открыть для нас самые сокровенные тайны дикой природы.
Сэмпл: http://sendfile.su/1274569

качество: HDTVRip
формат: AVI
Видео кодек: XviD
Аудио кодек: AC3
Видео: 720x400 (1.80:1), 25 fps, XviD build 73 ~1382 kbps avg, 0.19 bit/pixel
Аудио: 48 kHz, AC3 Dolby Digital, 2/0 (L,R) ch, ~192 kbps

Список серий

01. На просторах / Exposed
02. Затерянные миры / Lost Worlds
03. В водных глубинах / Going Deep

MediaInfo

Общее
Полное имя : D:\Tajny.dikoj.priody.2013. HDTVRip.[Один 777]\01.avi
Формат : AVI
Формат/Информация : Audio Video Interleave
Размер файла : 498 Мбайт
Продолжительность : 43 м.
Общий поток : 1584 Кбит/сек
Программа кодирования : VirtualDubMod 1.5.10.3 | www.virtualdub-fr.org || (build 2550/release)
Библиотека кодирования : VirtualDubMod build 2550/release
Видео
Идентификатор : 0
Формат : MPEG-4 Visual
Профиль формата : Advanced Simple@L5
Параметр BVOP формата : 1
Параметр QPel формата : Нет
Параметр GMC формата : Без точки перехода
Параметр матрицы формата : Default (H.263)
Идентификатор кодека : XVID
Идентификатор кодека/Подсказка : XviD
Продолжительность : 43 м.
Битрейт : 1382 Кбит/сек
Ширина : 720 пикселей
Высота : 400 пикселей
Соотношение сторон : 16:9
Частота кадров : 25,000 кадров/сек
Цветовое пространство : YUV
Субдискретизация насыщенности : 4:2:0
Битовая глубина : 8 бит
Тип развёртки : Прогрессивная
Метод сжатия : С потерями
Бит/(Пиксели*Кадры) : 0.192
Размер потока : 435 Мбайт (87%)
Библиотека кодирования : XviD 73
Аудио
Идентификатор : 1
Формат : AC-3
Формат/Информация : Audio Coding 3
Расширение режима : CM (complete main)
Параметр Endianness формата : Big
Идентификатор кодека : 2000
Продолжительность : 43 м.
Вид битрейта : Постоянный
Битрейт : 192 Кбит/сек
Каналы : 2 канала
Расположение каналов : Front: L R
Частота : 48,0 КГц
Частота кадров : 31,250 кадров/сек (1536 spf)
Метод сжатия : С потерями
Размер потока : 60,4 Мбайт (12%)
Выравнивание : Разделение по промежуткам
Продолжительность промежутка : 40 мс. (1,00 видеокадр)
Время предзагрузки промежутка : 500 мс.

Скриншот c названием фильма

Скриншоты

[Профиль] [ЛС]
Кто просматривает тему:

Форум Тема Автор Размер
365 365: Тайны истории / Secrets d'Histoire [сезон 7 выпуск 1,4,8,9 из 14] (Жан-Кристоф де Ревьер / Jean-Christophe de Revière) [2013 г., Документальный, история, научно-популярный, SATRip] skorpionN 5.21 GB
BBC BBC: Тайные правила современной жизни: Алгоритмы / The Secret Rules of Modern Living: Algorithms (David Briggs) [2015 г., Документальный, научно-познавательный, математика, HDTVRip 720p] skorpionN 1.59 GB
National Geographic NG: Разгадка египетских тайн / Egypt unwrapped [серии 1,2,4,5,8 из 8] (Дуг Ховарт / Doug Howard, Дэвид Ли / David Lee) [2008 г., Документальный, история, археология, исследования, мифы, заг... skorpionN 5.57 GB
Travel Travel: Музейные тайны / Mysteries at the Museum [сезон 10 серии 1-10, 12,13 из 13] (Remy Weber, Sterling Milan, Nick Zeig-Owens) [2016 г., Документально-постановочный, история, а... skorpionN 10.71 GB
Travel Travel: Тайны замков / Mysteries at the Castle (Castle Secrets & Legends) [сезон 2 серии 1-13 из 13] (Jeremiah Crowell) [2015 г., Документальный, приключения, образование, история, путешествия... skorpionN 18.55 GB
Viasat History Viasat History: Тайны британских замков / Secrets of Great British Castles [сезон 1 серии 5 из 6] (Джерри Хобан, Морис Суини, Сара Шеа) [2015 г., Документальный, история, SATRip] skorpionN 3.05 GB
Показать сообщения:    

Текущее время: Сегодня 14:37

Часовой пояс: GMT



Вы не можете начинать темы
Вы не можете отвечать на сообщения
Вы не можете редактировать свои сообщения
Вы не можете удалять свои сообщения
Вы не можете голосовать в опросах
Вы не можете прикреплять файлы к сообщениям
Вы не можете скачивать файлы