Тайный сад / Secret Garden (Жан Хафт / Jan Haft) [2014, документальный, флора и фауна, HDTVRip 720p]

 
Автор Сообщение

TorrentFilm ®

Пол:

Стаж: 2 года

Сообщений: 7741



Награды: Нет

Торрент-статистика

Создавать темы 07-Июл-2015 00:08

[Цитировать]

Тайный сад / Secret Garden
Дата/Год выпуска: 2014
Страна: Германия, Австрия
Жанр: документальный, флора и фауна
Продолжительность: 00:43:59
Перевод: Студийный (одноголосый закадровый)
Доп. инфо о переводе: Студия "Велес"
Русские субтитры: нет
Режиссер: Жан Хафт / Jan Haft
Описание: Мы выращиваем сады, но не знаем о том, что в них рядом с нами обитают удивительные и зачастую незаметные существа. Фильм посвящён растениям и животным, обитающим в типичном немецком саду.
Сэмпл: http://sendfile.su/1133918
качество: HDTVRip 720p
формат: MKV
Видео кодек: MPEG-4 AVC/H.264
Аудио кодек: AC3
Видео: MPEG-4 AVC/H.264, 1280x720 (16:9), ~3955 kbps, 25 fps
Аудио: AC3, 160 kbps, 44.1 kHz, 2 ch

MediaInfo

ОбщееУникальный идентификатор : 238229713497190709019701474694578689310 (0xB3395FB709FA7ED9A12BF8B5C8D5D51E)Полное имя : E:\Мои раздачи\Документальные фильмы\Secret Garden (1).mkvФормат : MatroskaВерсия формата : Version 4 / Version 2Размер файла : 1,29 ГбайтПродолжительность : 43 м.Общий поток : 4193 Кбит/секДата кодирования : UTC 2015-07-02 17:18:16Программа кодирования : mkvmerge v8.0.0 ('Til The Day That I Die') 64bitБиблиотека кодирования : libebml v1.3.1 + libmatroska v1.4.2DURATION : 00:43:59.104000000NUMBER_OF_FRAMES : 82472NUMBER_OF_BYTES : 63338496_STATISTICS_WRITING_APP : mkvmerge v8.0.0 ('Til The Day That I Die') 64bit_STATISTICS_WRITING_DATE_UTC : 2015-07-02 17:18:16_STATISTICS_TAGS : BPS DURATION NUMBER_OF_FRAMES NUMBER_OF_BYTES
ВидеоИдентификатор : 1Формат : AVCФормат/Информация : Advanced Video CodecПрофиль формата : High@L4Параметр CABAC формата : ДаПараметр ReFrames формата : 6 кадровИдентификатор кодека : V_MPEG4/ISO/AVCПродолжительность : 43 м.Битрейт : 4000 Кбит/секШирина : 1280 пикселейВысота : 720 пикселейСоотношение сторон : 16:9Режим частоты кадров : ПостоянныйЧастота кадров : 25,000 кадров/секЦветовое пространство : YUVСубдискретизация насыщенности : 4:2:0Битовая глубина : 8 битТип развёртки : ПрогрессивнаяБит/(Пиксели*Кадры) : 0.174Размер потока : 1,20 Гбайт (93%)Библиотека кодирования : x264 core 146 r2538 121396cНастройки программы : cabac=1 / ref=6 / deblock=1:0:0 / analyse=0x3:0x113 / me=umh / subme=9 / psy=1 / psy_rd=1.00:0.00 / mixed_ref=1 / me_range=24 / chroma_me=1 / trellis=2 / 8x8dct=1 / cqm=0 / deadzone=21,11 / fast_pskip=1 / chroma_qp_offset=-2 / threads=12 / lookahead_threads=1 / sliced_threads=0 / nr=0 / decimate=1 / interlaced=0 / bluray_compat=0 / constrained_intra=0 / bframes=6 / b_pyramid=2 / b_adapt=2 / b_bias=0 / direct=3 / weightb=1 / open_gop=0 / weightp=2 / keyint=250 / keyint_min=25 / scenecut=40 / intra_refresh=0 / rc_lookahead=40 / rc=2pass / mbtree=1 / bitrate=4000 / ratetol=1.0 / qcomp=0.60 / qpmin=0 / qpmax=69 / qpstep=4 / cplxblur=20.0 / qblur=0.5 / ip_ratio=1.40 / aq=1:1.00Default : ДаForced : Нет
АудиоИдентификатор : 2Формат : AC-3Формат/Информация : Audio Coding 3Расширение режима : CM (complete main)Параметр Endianness формата : BigИдентификатор кодека : A_AC3Продолжительность : 43 м.Вид битрейта : ПостоянныйБитрейт : 192 Кбит/секКаналы : 2 каналаРасположение каналов : Front: L RЧастота : 48,0 КГцМетод сжатия : С потерямиРазмер потока : 60,4 Мбайт (5%)Язык : RussianDefault : ДаForced : Нет

Скриншоты

[Профиль] [ЛС]
Кто просматривает тему:

Форум Тема Автор Размер
Фильмы (HD Rips | 720p, 1080p) 13 часов: Тайные солдаты Бенгази / 13 Hours (2016) BDRip 720p от HELLYWOOD | Лицензия Russian Mafia 7.95 GB
Фильмы (DVD 5/9) 13 часов: Тайные солдаты Бенгази / 13 Hours (2016) DVD5 | D достали все 4.37 GB
Фильмы (HD DVD, Blu-ray и BDRemux) 13 часов: Тайные солдаты Бенгази / 13 Hours: The Secret Soldiers of Benghazi (2016) BDRemux 1080p от ExKinoRay | Лицензия Russian Mafia 33.12 GB
Фильмы (HD Rips | 720p, 1080p) 13 часов: Тайные солдаты Бенгази / 13 Hours: The Secret Soldiers of Benghazi (2016) BDRip 1080p | Лицензия достали все 17.48 GB
Фильмы (HD Rips | 720p, 1080p) 13 часов: Тайные солдаты Бенгази / 13 Hours: The Secret Soldiers of Benghazi (2016) BDRip 1080p от ExKinoRay | Лицензия Russian Mafia 17.48 GB
Фильмы (HD Rips | 720p, 1080p) 13 часов: Тайные солдаты Бенгази / 13 Hours: The Secret Soldiers of Benghazi (2016) BDRip 720p | Лицензия достали все 8.77 GB
Фильмы (HD Rips | 720p, 1080p) 13 часов: Тайные солдаты Бенгази / 13 Hours: The Secret Soldiers of Benghazi (2016) BDRip 720p от ExKinoRay | Лицензия Russian Mafia 11.95 GB
Фильмы 2016 года 13 часов: Тайные солдаты Бенгази / 13 Hours: The Secret Soldiers of Benghazi (2016) BDRip | Лицензия достали все 1.46 GB
Показать сообщения:    

Текущее время: Сегодня 08:30

Часовой пояс: GMT



Вы не можете начинать темы
Вы не можете отвечать на сообщения
Вы не можете редактировать свои сообщения
Вы не можете удалять свои сообщения
Вы не можете голосовать в опросах
Вы не можете прикреплять файлы к сообщениям
Вы не можете скачивать файлы