Тайные связи / Covert Affairs [05x01-11 из 16] (2014) WEB-DL 1080p | Fox Life

 
Автор Сообщение

Белочка ®

Пол:

Стаж: 5 лет 1 месяц

Сообщений: 2089



Награды: 1 (Подробнее)

Girls (Количество: 1)
Торрент-статистика

Создавать темы 21-Ноя-2014 19:03

[Цитировать]

Информация о фильме
Название: Тайные связи
Оригинальное название: Covert Affairs
Год выхода: 2014
Жанр: боевик, триллер, драма, криминал, детектив
Режиссер: Стефен Т. Кэй, Феликс Энрикез Алькала, Аллен Крокер
В ролях: Пайпер Перабо, Кристофер Горам, Эрик Лайвли, Кэри Матчетт, Питер Галлахер, Энн Дудек
О фильме:
На новой работе всегда нелегко – особенно, если тебе предстоит работать в ЦРУ. Энни Уолкер (Пайпер Перабо) бегло говорит на шести языках, объездила весь мир и является самой лучшей ученицей в школе агентов ЦРУ. Но это все-равно не дает никакого объяснения, почему за месяц до окончания обучения, ее внезапно приглашают в главный офис ЦРУ и предлагают работу агента. Также для нее остается неизвестным, что в ее прошлом есть что-то или кто-то, очень интересующий ее боссов. Эгги Андерсон (Кристофер Горхем), техэксперт, потерявший зрение на одном из заданий, становится для Энни проводником и верным помощником в огромном мире интриг, опасности и бюрократии.

Страна: США
Продолжительность: ~ 00:43:00
Перевод: Профессиональный (многоголосый, закадровый) - Fox Life
Файл
Кодек: x264
Качество: WEB-DL 1080p
Видео: MPEG-4 AVC, ~ 5200 Кбит/с, 1920x1080
Звук: Русский (AC3, 2 ch, 192 Кбит/с), английский (AC3, 6 ch, 384 Кбит/с)

MI

Общее
Уникальный идентификатор : 207881212886138670132660346270500746964 (0x9C64771C69AE8908B4584228E24376D4)
Полное имя : Covert Affairs s05 WEB-DL 1080pCovert.Affairs.s05e03.WEBDL.1080p.NewStudio.TV.mkv
Формат : Matroska
Версия формата : Version 2
Размер файла : 1,72 Гбайт
Продолжительность : 42 м.
Общий поток : 5737 Кбит/сек
Дата кодирования : UTC 2014-09-25 18:40:22
Программа кодирования : mkvmerge v2.9.9 ('Tutu') built on Nov 25 2009 21:13:32
Библиотека кодирования : libebml v0.7.9 + libmatroska v0.8.1
Видео
Идентификатор : 1
Формат : AVC
Формат/Информация : Advanced Video Codec
Профиль формата : High@L4.0
Параметр CABAC формата : Да
Параметр ReFrames формата : 4 кадра
Идентификатор кодека : V_MPEG4/ISO/AVC
Продолжительность : 42 м.
Битрейт : 5046 Кбит/сек
Ширина : 1920 пикселей
Высота : 1080 пикселей
Соотношение сторон : 16:9
Режим частоты кадров : Постоянный
Частота кадров : 23,976 кадра/сек
Цветовое пространство : YUV
Субдискретизация насыщенности : 4:2:0
Битовая глубина : 8 бит
Тип развёртки : Прогрессивная
Бит/(Пиксели*Кадры) : 0.102
Размер потока : 1,51 Гбайт (88%)
Язык : English
Default : Нет
Forced : Нет
Основные цвета : BT.709
Характеристики трансфера : BT.709
Коэффициенты матрицы : BT.709
Аудио #1
Идентификатор : 2
Формат : AC-3
Формат/Информация : Audio Coding 3
Расширение режима : CM (complete main)
Параметр Endianness формата : Big
Идентификатор кодека : A_AC3
Продолжительность : 42 м.
Вид битрейта : Постоянный
Битрейт : 192 Кбит/сек
Каналы : 2 канала
Расположение каналов : Front: L R
Частота : 48,0 КГц
Битовая глубина : 16 бит
Метод сжатия : С потерями
Размер потока : 58,8 Мбайт (3%)
Язык : Russian
Default : Да
Forced : Да
Аудио #2
Идентификатор : 3
Формат : AC-3
Формат/Информация : Audio Coding 3
Расширение режима : CM (complete main)
Параметр Endianness формата : Big
Идентификатор кодека : A_AC3
Продолжительность : 42 м.
Вид битрейта : Постоянный
Битрейт : 384 Кбит/сек
Каналы : 6 каналов
Расположение каналов : Front: L C R, Side: L R, LFE
Частота : 48,0 КГц
Битовая глубина : 16 бит
Метод сжатия : С потерями
Размер потока : 118 Мбайт (7%)
Язык : English
Default : Нет
Forced : Нет

Скриншоты

[Профиль] [ЛС]
Кто просматривает тему:

Форум Тема Автор Размер
Фильмы (HD Rips | 720p, 1080p) 13 часов: Тайные солдаты Бенгази / 13 Hours (2016) BDRip 720p от HELLYWOOD | Лицензия Russian Mafia 7.95 GB
Фильмы (DVD 5/9) 13 часов: Тайные солдаты Бенгази / 13 Hours (2016) DVD5 | D достали все 4.37 GB
Фильмы (HD DVD, Blu-ray и BDRemux) 13 часов: Тайные солдаты Бенгази / 13 Hours: The Secret Soldiers of Benghazi (2016) BDRemux 1080p от ExKinoRay | Лицензия Russian Mafia 33.12 GB
Фильмы (HD Rips | 720p, 1080p) 13 часов: Тайные солдаты Бенгази / 13 Hours: The Secret Soldiers of Benghazi (2016) BDRip 1080p | Лицензия достали все 17.48 GB
Фильмы (HD Rips | 720p, 1080p) 13 часов: Тайные солдаты Бенгази / 13 Hours: The Secret Soldiers of Benghazi (2016) BDRip 1080p от ExKinoRay | Лицензия Russian Mafia 17.48 GB
Фильмы (HD Rips | 720p, 1080p) 13 часов: Тайные солдаты Бенгази / 13 Hours: The Secret Soldiers of Benghazi (2016) BDRip 720p | Лицензия достали все 8.77 GB
Фильмы (HD Rips | 720p, 1080p) 13 часов: Тайные солдаты Бенгази / 13 Hours: The Secret Soldiers of Benghazi (2016) BDRip 720p от ExKinoRay | Лицензия Russian Mafia 11.95 GB
Фильмы 2016 года 13 часов: Тайные солдаты Бенгази / 13 Hours: The Secret Soldiers of Benghazi (2016) BDRip | Лицензия достали все 1.46 GB
Показать сообщения:    

Текущее время: Сегодня 02:30

Часовой пояс: GMT



Вы не можете начинать темы
Вы не можете отвечать на сообщения
Вы не можете редактировать свои сообщения
Вы не можете удалять свои сообщения
Вы не можете голосовать в опросах
Вы не можете прикреплять файлы к сообщениям
Вы не можете скачивать файлы