Тайное дитя / Убийство у моря / Tyskungen (2013) BDRip 720p | P

 
Автор Сообщение

sergej644 ®

Пол:

Стаж: 5 лет 8 месяцев

Сообщений: 6136

Откуда: Soviet Union



Награды: 9 (Подробнее)

Mega Seeder 3 (Количество: 1) Top Seeder 5 (Количество: 1) Mega Seeder 4 (Количество: 1)
Торрент-статистика

Создавать темы 10-Фев-2015 10:20

[Цитировать]

Название: Убийство у моря
Оригинальное название: Tyskungen
Год выпуска: 2013
Страна: Швеция, Германия
Жанр:Триллер, криминал, детекив, экранизация
Продолжительность:01:45:03
Перевод:Профессиональный многоголосый
Субтитры: русские,
Режиссер:Пер Ханефьорд-В ролях:
-Клаудия Галли (Erica Falck), Ричард Ульфзэтер (Patrik Hedström), Эва Фритйофсон (Kristina), Памела Кортес Бруна (Paula), Леннарт Якель (Mellberg), Amalia Holm Bjelke (Ung Elsy), Fanny Klefelt (Ung Britta), Эдвин Эндре (Ung Axel), Аксель Мирберг (Ung Erik), Kim Solfeldt (Ung Frans), Якоб Офтебро (Hans Olavsen), Феликс Энгстрём (Elof Moström)-Описание:
Живописный рыбацкий городок Фьелльбакка на побережье Атлантики выглядит как ожившая туристическая открытка. Именно сюда возвращается автор детективов Эрика, мечтая предаться счастливой семейной жизни и творчеству. Но тихая провинциальная жизнь таит немало секретов. И однажды вековой покой Фьелльбакки взрывается новостью о жестоком убийстве...- -Качество: BDRip 720p
Формат:MKV
Видео кодек: AVC
Аудио кодек:AC3
Видео: AVC, 1280x536 (2.40:1), 4437 kbps, 24 fps, 0,269 bpp
Аудио №1: русский / AC3 / 2.0 / 48 kHz / 192 kbps / 16 bit ||
Аудио №2: Swedish / AC3 / 5.1 / 48 kHz / 448 kbps / 16 bit
Навигация по главам: есть- -

〤 ОтчетМедиаИнфо 〤

General
Unique ID : 225704756257265759445330315597626137419 (0xA9CD27A55738E59B9107EFAFCA7ADB4B)
Complete name : D:ТорентыYbiistvo.y.morya.2013.P.BDRip.720p.mkv
Format : Matroska
Format version : Version 2
File size : 3.72 GiB
Duration : 1h 45mn
Overall bit rate : 5 076 Kbps
Encoded date : UTC 2014-10-04 18:44:54
Writing application : mkvmerge v4.0.0 ('The Stars were mine') сборка от Jun 6 2010 16:18:42
Writing library : libebml v1.0.0 + libmatroska v1.0.0
Video
ID : 1
Format : AVC
Format/Info : Advanced Video Codec
Format profile : High@L4.1
Format settings, CABAC : Yes
Format settings, ReFrames : 5 frames
Codec ID : V_MPEG4/ISO/AVC
Duration : 1h 45mn
Bit rate : 4 437 Kbps
Width : 1 280 pixels
Height : 536 pixels
Display aspect ratio : 2.40:1
Frame rate : 24.000 fps
Color space : YUV
Chroma subsampling : 4:2:0
Bit depth : 8 bits
Scan type : Progressive
Bits/(Pixel*Frame) : 0.269
Stream size : 3.18 GiB (85%)
Writing library : x264 core 135 r2345 f0c1c53
Encoding settings : cabac=1 / ref=5 / deblock=1:0:0 / analyse=0x3:0x133 / me=umh / subme=7 / psy=1 / psy_rd=1.00:0.00 / mixed_ref=1 / me_range=16 / chroma_me=1 / trellis=1 / 8x8dct=1 / cqm=0 / deadzone=21,11 / fast_pskip=0 / chroma_qp_offset=-2 / threads=12 / lookahead_threads=2 / sliced_threads=0 / nr=0 / decimate=1 / interlaced=0 / bluray_compat=0 / constrained_intra=0 / bframes=3 / b_pyramid=2 / b_adapt=2 / b_bias=0 / direct=3 / weightb=1 / open_gop=0 / weightp=2 / keyint=250 / keyint_min=24 / scenecut=40 / intra_refresh=0 / rc_lookahead=50 / rc=2pass / mbtree=1 / bitrate=4437 / ratetol=1.0 / qcomp=0.60 / qpmin=0 / qpmax=69 / qpstep=4 / cplxblur=20.0 / qblur=0.5 / ip_ratio=1.40 / aq=1:1.00
Language : English
Default : No
Forced : No
Audio #1
ID : 2
Format : AC-3
Format/Info : Audio Coding 3
Mode extension : CM (complete main)
Codec ID : A_AC3
Duration : 1h 45mn
Bit rate mode : Constant
Bit rate : 192 Kbps
Channel(s) : 2 channels
Channel positions : Front: L R
Sampling rate : 48.0 KHz
Bit depth : 16 bits
Compression mode : Lossy
Stream size : 144 MiB (4%)
Language : Russian
Default : Yes
Forced : Yes
Audio #2
ID : 3
Format : AC-3
Format/Info : Audio Coding 3
Mode extension : CM (complete main)
Codec ID : A_AC3
Duration : 1h 45mn
Bit rate mode : Constant
Bit rate : 448 Kbps
Channel(s) : 6 channels
Channel positions : Front: L C R, Side: L R, LFE
Sampling rate : 48.0 KHz
Bit depth : 16 bits
Compression mode : Lossy
Stream size : 337 MiB (9%)
Language : Swedish
Default : No
Forced : No
Text
ID : 4
Format : UTF-8
Codec ID : S_TEXT/UTF8
Codec ID/Info : UTF-8 Plain Text
Language : Russian
Default : No
Forced : No
Menu
00:00:00.000 : en:00:00:00.000
00:09:59.792 : en:00:09:59.792
00:19:59.958 : en:00:19:59.958
00:29:59.667 : en:00:29:59.667
00:39:59.542 : en:00:39:59.542
00:49:59.542 : en:00:49:59.542
00:59:59.708 : en:00:59:59.708
01:09:59.792 : en:01:09:59.792
01:19:59.542 : en:01:19:59.542
01:30:00.000 : en:01:30:00.000
01:39:59.917 : en:01:39:59.917

Скриншоты

[Профиль] [ЛС]
Показать сообщения:    

Текущее время: Сегодня 13:40

Часовой пояс: GMT



Вы не можете начинать темы
Вы не можете отвечать на сообщения
Вы не можете редактировать свои сообщения
Вы не можете удалять свои сообщения
Вы не можете голосовать в опросах
Вы не можете прикреплять файлы к сообщениям
Вы не можете скачивать файлы