Тайна тёмной комнаты (Ольга Беляева) [2014, Россия, приключения, детский, DVD] R5 Original Rus

 
Автор Сообщение

TorrentFilm ®

Пол:

Стаж: 2 года

Сообщений: 7741



Награды: Нет

Торрент-статистика

Создавать темы 09-Июл-2015 00:01

[Цитировать]

Тайна тёмной комнаты«Думаешь, ничего неизведанного больше нет? Как бы не так!…» Страна: Россия
Жанр: приключения, детский
Год выпуска: 2014
релиз на DVD: 2 декабря 2014, «CD Land»
Продолжительность: 01:16:27
Перевод: Оригинал
Cубтитры: отсутствуют
Режиссер: Ольга Беляева
В ролях: Сергей Никоненко, Виктор Сухоруков, Галина Польских, Ирина Скобцева, Константин Крюков, Иван Агапов, Екатерина Воронина, Нина Маслова, Егор Губарев, Андрей Попович
Описание: Два школьника решают исследовать таинственное окно, появляющееся на стене их дома в полночь во время полнолуния. Проникнув туда и оказавшись в тёмной комнате, они и не подозревают, какие приключения ждут их впереди…


Дополнительные материалы:
- отсутствуют
Меню: есть, на русском
Тип релиза: DVD5 R5
Контейнер: DVD-Video
Видео кодек: MPEG2
Аудио кодек: AC3
Видео: PAL 16:9 (720x576) VBR Auto Letterboxed ~ 6814 kbps avg
Аудио: Russian (Dolby AC3, 6 ch, 448 kbps)

DVDInfo

Title: Taina.Temnoii.Komnatu.2014.DVD.R5.NiP
Size: 4.00 Gb ( 4 189 802,00 KBytes ) - DVD-5
Enabled regions: 1, 2, 3, 4, 5, 6, 7, 8
VTS_01 :
Play Length: 00:00:19
Video: PAL 16:9 (720x576) VBR, Auto Pan&Scan, Auto Letterboxed
Audio:
Not specified (Dolby AC3, 2 ch)
VTS_02 :
Play Length: 01:16:27
Video: PAL 16:9 (720x576) VBR, Auto Pan&Scan, Auto Letterboxed
Audio:
Not specified (Dolby AC3, 6 ch)
* Menus Information *
VIDEO_TS Menu
Video:
PAL 16:9 (720x576) VBR
Auto Pan&Scan, Auto Letterboxed
English Language Unit :
Title Menu
VTS_01 Menu
Video:
PAL 16:9 (720x576) VBR
Auto Pan&Scan, Auto Letterboxed
Audio:
Not specified (Dolby AC3, 6 ch)
English Language Unit :
Root Menu
VTS_02 Menu
Video:
PAL 4:3 (720x576) VBR
English Language Unit :
Root Menu

MediaInfo

Общее
Полное имя : I:\DVD\Taina.Temnoii.Komnatu.2014.DVD.R5.NiP\VIDEO_TS\VTS_02_3.VOB
Формат : MPEG-PS
Размер файла : 1024 Мбайт
Продолжительность : 19 м.
Режим общего битрейта : Переменный
Общий поток : 7410 Кбит/сек
Видео
Идентификатор : 224 (0xE0)
Формат : MPEG Video
Версия формата : Version 2
Профиль формата : Main@Main
Параметр BVOP формата : Да
Параметр матрицы формата : Выборочная
Параметр GOP формата : M=3, N=12
Продолжительность : 19 м.
Вид битрейта : Переменный
Битрейт : 6814 Кбит/сек
Максимальный битрейт : 9000 Кбит/сек
Ширина : 720 пикселей
Высота : 576 пикселей
Соотношение сторон : 16:9
Частота кадров : 25,000 кадров/сек
Стандарт вещания : PAL
Цветовое пространство : YUV
Субдискретизация насыщенности : 4:2:0
Битовая глубина : 8 бит
Тип развёртки : Чересстрочная
Порядок развёртки : Верхнее поле первое
Метод сжатия : С потерями
Бит/(Пиксели*Кадры) : 0.657
Временной код первого кадра : 00:39:46:02
Оригинал временного кода : Group of pictures header
Размер потока : 941 Мбайт (92%)
Основные цвета : BT.601 PAL
Характеристики трансфера : BT.470 System B, BT.470 System G
Коэффициенты матрицы : BT.601
Аудио
Идентификатор : 189 (0xBD)-128 (0x80)
Формат : AC-3
Формат/Информация : Audio Coding 3
Расширение режима : CM (complete main)
Параметр Endianness формата : Big
Режим смешивания : DVD-Video
Продолжительность : 19 м.
Вид битрейта : Постоянный
Битрейт : 448 Кбит/сек
Каналы : 6 каналов
Расположение каналов : Front: L C R, Side: L R, LFE
Частота : 48,0 КГц
Битовая глубина : 16 бит
Метод сжатия : С потерями
Задержка видео : -480 мс.
Размер потока : 61,9 Мбайт (6%)
Меню

Скриншоты меню

Скриншоты

[Профиль] [ЛС]

Создавать темы 06-Авг-2015 23:37 (спустя 28 дней)

Топик был перенесен из форума Фильмы (HD DVD, Blu-ray и BDRemux) в форум Фильмы (DVD 5/9)
sergej644
 
Кто просматривает тему:

Форум Тема Автор Размер
Animal Planet Animal Planet. Тайная жизнь домашних питомцев / Secret life of pets [01-06] (2014) HDTVRip от GeneralFilm | P1 sergej644 1.6 GB
BBC BBC: Археология: Тайная история / Archaeology: A Secret History [серии 1-3 из 3] (Никола Шир / Nicola Seare, Энтони Барвелл / Anthony Barwell) [2013 г., Документальный, история, археология, SATRip] skorpionN 2.31 GB
BBC BBC: Магия грибов (Тайная жизнь грибов) / The Magic of Mushrooms (Russell Leven) [2014 г., Документальный, научно-познавательный, HDTVRip 720p] skorpionN 1.27 GB
BBC BBC: Мир природы. Тайная жизнь барсуков / Natural World. Badgers Secrets of the Sett [сезон 27 серия 7] (Тим Мартин / Tim Martin) [2008 г., Документальный, исследование, животные, природа, HDTVRip... skorpionN 1.15 GB
BBC BBC: Операция Стоунхендж. Тайна, скрытая под камнями / Operation Stonehenge: What Lies Beneath [серии 1-2 из 2] (Джереми Тернер / Jeremy Turner) [2014 г., Документально-постановочный, история,... skorpionN 3.27 GB
BBC BBC: Тайная жизнь близнецов / The Secret Life of Twins (Luke Wiles) [2015 г., Документальный, научно-популярный, SATRip] skorpionN 584 MB
BBC BBC: Тайная жизнь мошкары / The Secret Life of Midges (Colin Murray) [2015 г., Документальный, научно-познавательный, HDTVRip 720p] skorpionN 1.26 GB
Da Vinci Learning Da Vinci Learning: Тайна Хоббита / The Hobbit Enigma (Simon Nasht, Annamaria Talas) [2008 г., Локументальный, научно-популярный, археология, антропология, SATRip] skorpionN 843 MB
Показать сообщения:    

Текущее время: Сегодня 14:54

Часовой пояс: GMT



Вы не можете начинать темы
Вы не можете отвечать на сообщения
Вы не можете редактировать свои сообщения
Вы не можете удалять свои сообщения
Вы не можете голосовать в опросах
Вы не можете прикреплять файлы к сообщениям
Вы не можете скачивать файлы