Тайна тёмной комнаты (2014) DVD5 | Лицензия

 
Автор Сообщение

К@питан ®

Пол:

Стаж: 5 лет 6 месяцев

Сообщений: 6092

Откуда: Soviet Union



Награды: Нет

Торрент-статистика

Создавать темы 17-Дек-2014 19:28

[Цитировать]

Информация о фильме
Название: Тайна тёмной комнаты
Год выхода: 2014
Жанр: приключения, детский
Режиссер: Ольга Беляева
В ролях: Сергей Никоненко, Виктор Сухоруков, Галина Польских, Ирина Скобцева, Константин Крюков, Иван Агапов, Екатерина Воронина, Нина Маслова, Егор Губарев, Андрей Попович
О фильме:
Два школьника решают исследовать таинственное окно, появляющееся на стене их дома в полночь во время полнолуния. Проникнув туда и оказавшись в тёмной комнате, они и не подозревают, какие приключения ждут их впереди…

Страна: Россия
Студия: Вертикаль
Продолжительность: 75 мин. / 01:15
Перевод: не требуется
Файл
Кодек: MPEG2
Качество: DVD5
Видео: PAL 16:9 (720x576@1024x576) VBR 6637 Kbps, 25.000 fps
Звук: Dolby AC3, 6 ch, 48.0 KHz, 448 Kbps
Субтитры: отсутствуют

MediaInfo

General
Complete name : D:Taina.Temnoii.Komnatu.2014.DVD5VIDEO_TSVTS_02_1.VOB
Format : MPEG-PS
File size : 1 024 MiB
Duration : 19mn 48s
Overall bit rate mode : Variable
Overall bit rate : 7 229 Kbps
Video
ID : 224 (0xE0)
Format : MPEG Video
Format version : Version 2
Format profile : Main@Main
Format settings, BVOP : Yes
Format settings, Matrix : Custom
Format settings, GOP : M=3, N=12
Format settings, picture struc : Frame
Duration : 19mn 48s
Bit rate mode : Variable
Bit rate : 6 637 Kbps
Maximum bit rate : 9 000 Kbps
Width : 720 pixels
Height : 576 pixels
Display aspect ratio : 16:9
Frame rate : 25.000 fps
Standard : PAL
Color space : YUV
Chroma subsampling : 4:2:0
Bit depth : 8 bits
Scan type : Interlaced
Scan order : Top Field First
Compression mode : Lossy
Bits/(Pixel*Frame) : 0.640
Time code of first frame : 00:00:00:00
Time code source : Group of pictures header
Stream size : 940 MiB (92%)
Color primaries : BT.601 PAL
Transfer characteristics : BT.470 System B, BT.470 System G
Matrix coefficients : BT.601
Audio
ID : 189 (0xBD)-128 (0x80)
Format : AC-3
Format/Info : Audio Coding 3
Mode extension : CM (complete main)
Format settings, Endianness : Big
Muxing mode : DVD-Video
Duration : 19mn 47s
Bit rate mode : Constant
Bit rate : 448 Kbps
Channel(s) : 6 channels
Channel positions : Front: L C R, Side: L R, LFE
Sampling rate : 48.0 KHz
Bit depth : 16 bits
Compression mode : Lossy
Stream size : 63.4 MiB (6%)
Menu

Скриншоты

[Профиль] [ЛС]
Кто просматривает тему:

Форум Тема Автор Размер
BBC BBC: Тайная наука. Химическое и биологическое оружие / Inside Porton Down Britain's Secret Weapons Research Facility (Tim Usborne) [2016 г., Документальный, научно-популярный, HDTVRip-AVC 720p] skorpionN 1.43 GB
Боевики, детективы, триллеры Грегори Самак - Тайная книга (2016) FB2, EPUB достали все 1 MB
Зарубежные мультфильмы Елена и тайна Авалора / Elena and the Secret of Avalor (2016) WEB-DLRip | D BOSS 1.1 GB
Трейлеры Тайна в их глазах / Secret in Their Eyes (2015) WEBRip 1080p | Трейлер BOSS 79 MB
Мультфильмы (48-60 fps) Тайная жизнь домашних животных / The Secret Life of Pets (2016) BDRip 1080p | 60 FPS | iTunes Russian Mafia 6.89 GB
3D Мультфильмы Тайная жизнь домашних животных / The Secret Life of Pets (2016) BDRip 1080p от Ash61 | 3D-Video | halfOU | iTunes Russian Mafia 7.97 GB
Зарубежные мультфильмы Тайная жизнь домашних животных / The Secret Life of Pets (2016) BDRip от GeneralFilm | iTunes Russian Mafia 1.41 GB
Зарубежные мультфильмы Тайная жизнь домашних животных / The Secret Life of Pets (2016) BDRip-AVC от R.G.Resident | iTunes Russian Mafia 2.31 GB
Показать сообщения:    

Текущее время: Сегодня 04:02

Часовой пояс: GMT



Вы не можете начинать темы
Вы не можете отвечать на сообщения
Вы не можете редактировать свои сообщения
Вы не можете удалять свои сообщения
Вы не можете голосовать в опросах
Вы не можете прикреплять файлы к сообщениям
Вы не можете скачивать файлы