Тайна тёмной комнаты (2014) DVD5 | Лицензия

 
Автор Сообщение

sergej644 ®

Пол:

Стаж: 4 года 11 месяцев

Сообщений: 6041

Откуда: Soviet Union



Награды: Нет

Торрент-статистика

Создавать темы 17-Дек-2014 19:28

[Цитировать]

Информация о фильме
Название: Тайна тёмной комнаты
Год выхода: 2014
Жанр: приключения, детский
Режиссер: Ольга Беляева
В ролях: Сергей Никоненко, Виктор Сухоруков, Галина Польских, Ирина Скобцева, Константин Крюков, Иван Агапов, Екатерина Воронина, Нина Маслова, Егор Губарев, Андрей Попович
О фильме:
Два школьника решают исследовать таинственное окно, появляющееся на стене их дома в полночь во время полнолуния. Проникнув туда и оказавшись в тёмной комнате, они и не подозревают, какие приключения ждут их впереди…

Страна: Россия
Студия: Вертикаль
Продолжительность: 75 мин. / 01:15
Перевод: не требуется
Файл
Кодек: MPEG2
Качество: DVD5
Видео: PAL 16:9 (720x576@1024x576) VBR 6637 Kbps, 25.000 fps
Звук: Dolby AC3, 6 ch, 48.0 KHz, 448 Kbps
Субтитры: отсутствуют

MediaInfo

General
Complete name : D:Taina.Temnoii.Komnatu.2014.DVD5VIDEO_TSVTS_02_1.VOB
Format : MPEG-PS
File size : 1 024 MiB
Duration : 19mn 48s
Overall bit rate mode : Variable
Overall bit rate : 7 229 Kbps
Video
ID : 224 (0xE0)
Format : MPEG Video
Format version : Version 2
Format profile : Main@Main
Format settings, BVOP : Yes
Format settings, Matrix : Custom
Format settings, GOP : M=3, N=12
Format settings, picture struc : Frame
Duration : 19mn 48s
Bit rate mode : Variable
Bit rate : 6 637 Kbps
Maximum bit rate : 9 000 Kbps
Width : 720 pixels
Height : 576 pixels
Display aspect ratio : 16:9
Frame rate : 25.000 fps
Standard : PAL
Color space : YUV
Chroma subsampling : 4:2:0
Bit depth : 8 bits
Scan type : Interlaced
Scan order : Top Field First
Compression mode : Lossy
Bits/(Pixel*Frame) : 0.640
Time code of first frame : 00:00:00:00
Time code source : Group of pictures header
Stream size : 940 MiB (92%)
Color primaries : BT.601 PAL
Transfer characteristics : BT.470 System B, BT.470 System G
Matrix coefficients : BT.601
Audio
ID : 189 (0xBD)-128 (0x80)
Format : AC-3
Format/Info : Audio Coding 3
Mode extension : CM (complete main)
Format settings, Endianness : Big
Muxing mode : DVD-Video
Duration : 19mn 47s
Bit rate mode : Constant
Bit rate : 448 Kbps
Channel(s) : 6 channels
Channel positions : Front: L C R, Side: L R, LFE
Sampling rate : 48.0 KHz
Bit depth : 16 bits
Compression mode : Lossy
Stream size : 63.4 MiB (6%)
Menu

Скриншоты

[Профиль] [ЛС]
Кто просматривает тему:

Форум Тема Автор Размер
Animal Planet Animal Planet. Тайная жизнь домашних питомцев / Secret life of pets [01-06] (2014) HDTVRip от GeneralFilm | P1 sergej644 1.6 GB
BBC BBC: Археология: Тайная история / Archaeology: A Secret History [серии 1-3 из 3] (Никола Шир / Nicola Seare, Энтони Барвелл / Anthony Barwell) [2013 г., Документальный, история, археология, SATRip] skorpionN 2.31 GB
BBC BBC: Магия грибов (Тайная жизнь грибов) / The Magic of Mushrooms (Russell Leven) [2014 г., Документальный, научно-познавательный, HDTVRip 720p] skorpionN 1.27 GB
BBC BBC: Мир природы. Тайная жизнь барсуков / Natural World. Badgers Secrets of the Sett [сезон 27 серия 7] (Тим Мартин / Tim Martin) [2008 г., Документальный, исследование, животные, природа, HDTVRip... skorpionN 1.15 GB
BBC BBC: Операция Стоунхендж. Тайна, скрытая под камнями / Operation Stonehenge: What Lies Beneath [серии 1-2 из 2] (Джереми Тернер / Jeremy Turner) [2014 г., Документально-постановочный, история,... skorpionN 3.27 GB
BBC BBC: Тайная жизнь близнецов / The Secret Life of Twins (Luke Wiles) [2015 г., Документальный, научно-популярный, SATRip] skorpionN 584 MB
BBC BBC: Тайная жизнь мошкары / The Secret Life of Midges (Colin Murray) [2015 г., Документальный, научно-познавательный, HDTVRip 720p] skorpionN 1.26 GB
Da Vinci Learning Da Vinci Learning: Тайна Хоббита / The Hobbit Enigma (Simon Nasht, Annamaria Talas) [2008 г., Локументальный, научно-популярный, археология, антропология, SATRip] skorpionN 843 MB
Показать сообщения:    

Текущее время: Сегодня 21:02

Часовой пояс: GMT



Вы не можете начинать темы
Вы не можете отвечать на сообщения
Вы не можете редактировать свои сообщения
Вы не можете удалять свои сообщения
Вы не можете голосовать в опросах
Вы не можете прикреплять файлы к сообщениям
Вы не можете скачивать файлы