Тайна темной комнаты (Ольга Беляева) [2014, Россия, приключения, детский, HDTV 1080i] + Original Rus

 
Автор Сообщение

TorrentFilm ®

Пол:

Стаж: 2 года

Сообщений: 7741



Награды: Нет

Торрент-статистика

Создавать темы 30-Апр-2015 00:02

[Цитировать]

Тайна тёмной комнаты
Страна: Россия
Студия: Мосфильм, Вертикаль
Жанр: приключения, детский
Год выпуска: 2014
Продолжительность: 01:16:22
Cубтитры: нет
Оригинальная аудиодорожка: русский
Режиссер: Ольга Беляева
В ролях:
Сергей Никоненко
Виктор Сухоруков
Галина Польских
Ирина Скобцева
Константин Крюков
Иван Агапов
Екатерина Воронина
Нина Маслова
Егор Губарев
Андрей Попович
Описание: Два школьника решают исследовать таинственное окно, появляющееся на стене их дома в полночь во время полнолуния. Проникнув туда и оказавшись в тёмной
комнате, они и не подозревают, какие приключения ждут их впереди…
Доп. информация: Запись со спутника Eutelsat 36A/Eutelsat 36B, телеканал "Наше HD".
Сэмпл: http://multi-up.com/1041220
Релиз:
Тип релиза: HDTV 1080i
Контейнер: TS
Видео: AVC, 1920x1080i, 25.000 fps, 5903 kbps
Аудио: Русский (Dolby AC3 5.1, 48 kHz, 448 kbps)

MediaInfo

Общее
Идентификатор : 1 (0x1)
Полное имя : E:\Тайна_темной_комнаты_HDTV_1080i_2014.ts
Формат : MPEG-TS
Размер файла : 3,57 Гбайт
Продолжительность : 1 ч. 16 м.
Режим общего битрейта : Переменный
Общий поток : 6686 Кбит/сек
Максимальный общий битрейт : 35,5 Мбит/сек
Видео
Идентификатор : 4113 (0x1011)
Идентификатор меню : 1 (0x1)
Формат : AVC
Формат/Информация : Advanced Video Codec
Профиль формата : Main@L4.0
Параметр CABAC формата : Да
Параметр ReFrames формата : 3 кадра
Идентификатор кодека : 27
Продолжительность : 1 ч. 16 м.
Вид битрейта : Переменный
Битрейт : 5903 Кбит/сек
Максимальный битрейт : 40,0 Мбит/сек
Ширина : 1920 пикселей
Высота : 1080 пикселей
Соотношение сторон : 16:9
Частота кадров : 25,000 кадров/сек
Стандарт вещания : Component
Цветовое пространство : YUV
Субдискретизация насыщенности : 4:2:0
Битовая глубина : 8 бит
Тип развёртки : Чересстрочная
Порядок развёртки : Верхнее поле первое
Бит/(Пиксели*Кадры) : 0.114
Размер потока : 3,15 Гбайт (88%)
Основные цвета : BT.709
Характеристики трансфера : BT.709
Коэффициенты матрицы : BT.709
colour_range : Limited
Аудио
Идентификатор : 4352 (0x1100)
Идентификатор меню : 1 (0x1)
Формат : AC-3
Формат/Информация : Audio Coding 3
Расширение режима : CM (complete main)
Параметр Endianness формата : Big
Идентификатор кодека : 129
Продолжительность : 1 ч. 16 м.
Вид битрейта : Постоянный
Битрейт : 448 Кбит/сек
Каналы : 6 каналов
Расположение каналов : Front: L C R, Side: L R, LFE
Частота : 48,0 КГц
Битовая глубина : 16 бит
Метод сжатия : С потерями
Задержка видео : 16 мс.
Размер потока : 245 Мбайт (7%)
Язык : Russian

Скриншоты

[Профиль] [ЛС]
Кто просматривает тему:

Форум Тема Автор Размер
Animal Planet Animal Planet. Тайная жизнь домашних питомцев / Secret life of pets [01-06] (2014) HDTVRip от GeneralFilm | P1 sergej644 1.6 GB
BBC BBC: Археология: Тайная история / Archaeology: A Secret History [серии 1-3 из 3] (Никола Шир / Nicola Seare, Энтони Барвелл / Anthony Barwell) [2013 г., Документальный, история, археология, SATRip] skorpionN 2.31 GB
BBC BBC: Магия грибов (Тайная жизнь грибов) / The Magic of Mushrooms (Russell Leven) [2014 г., Документальный, научно-познавательный, HDTVRip 720p] skorpionN 1.27 GB
BBC BBC: Мир природы. Тайная жизнь барсуков / Natural World. Badgers Secrets of the Sett [сезон 27 серия 7] (Тим Мартин / Tim Martin) [2008 г., Документальный, исследование, животные, природа, HDTVRip... skorpionN 1.15 GB
BBC BBC: Операция Стоунхендж. Тайна, скрытая под камнями / Operation Stonehenge: What Lies Beneath [серии 1-2 из 2] (Джереми Тернер / Jeremy Turner) [2014 г., Документально-постановочный, история,... skorpionN 3.27 GB
BBC BBC: Тайная жизнь близнецов / The Secret Life of Twins (Luke Wiles) [2015 г., Документальный, научно-популярный, SATRip] skorpionN 584 MB
BBC BBC: Тайная жизнь мошкары / The Secret Life of Midges (Colin Murray) [2015 г., Документальный, научно-познавательный, HDTVRip 720p] skorpionN 1.26 GB
Da Vinci Learning Da Vinci Learning: Тайна Хоббита / The Hobbit Enigma (Simon Nasht, Annamaria Talas) [2008 г., Локументальный, научно-популярный, археология, антропология, SATRip] skorpionN 843 MB
Показать сообщения:    

Текущее время: Сегодня 08:58

Часовой пояс: GMT



Вы не можете начинать темы
Вы не можете отвечать на сообщения
Вы не можете редактировать свои сообщения
Вы не можете удалять свои сообщения
Вы не можете голосовать в опросах
Вы не можете прикреплять файлы к сообщениям
Вы не можете скачивать файлы