Тайна захоронений из Стоунхенджа / Stonehenge. Bringing back the Dead (Nic Gillam-Smith) [2013 г., Документальный, историия, познавательный, SATRip]

 
Автор Сообщение

skorpionN ®

Пол:

Стаж: 1 год 8 месяцев

Сообщений: 579



Награды: 4 (Подробнее)

Mega Seeder 1 (Количество: 1) Mega Seeder 2 (Количество: 1) Mega Seeder 3 (Количество: 1)
Торрент-статистика

Создавать темы 25-Апр-2015 10:49

[Цитировать]

Тайна захоронений из Стоунхенджа / Stonehenge. Bringing back the Dead
Год выпуска: 2013
Страна: Австрия, Terra Mater Factual Studios GmbH and Oxford Scientific Films in association with Channel 4
Жанр: Документальный, историия, познавательный
Продолжительность: 00:53:01
Перевод: Профессиональный (двухголосый), Видеофильм ТВ
Режиссер: Nic Gillam-Smith
В ролях: профессор Майк Паркер Пирсон
Описание: Это история об исследовании одного из самых известных доисторических мест в Европе. На основании результатов судебно-медицинских исследований в этом документальным фильме рассматривается вопрос о культах и ​​загадках человечества. Британские ученые разработали новую теорию о первоначальной цели и предназначении Стоунхенджа: каменный круг в южной Англии может быть огромным местом погребения элитных семей, которые жили около 5000 лет назад. Стоунхендж также мог бы быть центром гигантских торжеств каменного века.
Доп. информация:
Награды:
2013: CINE Golden Eagle Awards 2013 (Bethesda, USA): Televised Documentary & Performance Division – Science & Technology
2014: New York Festivals® International TV & Film Awards 2014 (New York, USA): Silver World Medal (Category: History & Society)
Качество: SATRip
Формат: AVI
Видео кодек: XviD
Аудио кодек: AC3
Видео: 720x400 25fps ~1896 Kbps
Аудио: AC3 2ch, 48kHz, 192 kbps

Скриншоты


MediaInfo:

Format : AVI
Format/Info : Audio Video Interleave
File size : 795 MiB
Duration : 53mn 1s
Overall bit rate : 2 096 Kbps
Writing application : TMPGEnc Video Mastering Works 5 Version. 5.0.6.38
Writing library : TMPGEnc Video Mastering Works 5 Version. 5.0.6.38
Video
ID : 0
Format : MPEG-4 Visual
Format profile : Advanced Simple@L5
Format settings, BVOP : 2
Format settings, QPel : No
Format settings, GMC : No warppoints
Format settings, Matrix : Default (H.263)
Muxing mode : Packed bitstream
Codec ID : XVID
Codec ID/Hint : XviD
Duration : 53mn 1s
Bit rate : 1 897 Kbps
Width : 720 pixels
Height : 400 pixels
Display aspect ratio : 16:9
Frame rate : 25.000 fps
Color space : YUV
Chroma subsampling : 4:2:0
Bit depth : 8 bits
Scan type : Progressive
Compression mode : Lossy
Bits/(Pixel*Frame) : 0.263
Stream size : 719 MiB (91%)
Writing library : XviD 73
Audio
ID : 1
Format : AC-3
Format/Info : Audio Coding 3
Mode extension : CM (complete main)
Format settings, Endianness : Big
Codec ID : 2000
Duration : 53mn 1s
Bit rate mode : Constant
Bit rate : 192 Kbps
Channel(s) : 2 channels
Channel positions : Front: L R
Sampling rate : 48.0 KHz
Compression mode : Lossy
Stream size : 72.8 MiB (9%)
Alignment : Aligned on interleaves
Interleave, duration : 480 ms (12.00 video frames)
[Профиль] [ЛС]

KiruhaDelMar

Стаж: 1 год 8 месяцев

Сообщений: 243



Награды: Нет

Торрент-статистика

Создавать темы 25-Апр-2015 17:46 (спустя 6 часов)

[Цитировать]

месяц трупов
[Профиль] [ЛС]

skorpionN ®

Пол:

Стаж: 1 год 8 месяцев

Сообщений: 579



Награды: 4 (Подробнее)

Top Releaser 2 (Количество: 1) Mega Seeder 2 (Количество: 1) Mega Seeder 3 (Количество: 1)
Торрент-статистика

Создавать темы 25-Апр-2015 18:51 (спустя 1 час 4 минуты)

[Цитировать]

Мертвецов, а не трупов, некроман ты наш bx
[Профиль] [ЛС]

KiruhaDelMar

Стаж: 1 год 8 месяцев

Сообщений: 243



Награды: Нет

Торрент-статистика

Создавать темы 25-Апр-2015 20:25 (спустя 1 час 33 минуты)

[Цитировать]

то ты у нас ман, а я монгер bm
[Профиль] [ЛС]

skorpionN ®

Пол:

Стаж: 1 год 8 месяцев

Сообщений: 579



Награды: 4 (Подробнее)

Mega Seeder 3 (Количество: 1) Top Releaser 2 (Количество: 1) Mega Seeder 1 (Количество: 1)
Торрент-статистика

Создавать темы 26-Апр-2015 08:14 (спустя 11 часов)

[Цитировать]

66512то ты у нас ман, а я монгер bm
И много заработал? hunter
[Профиль] [ЛС]
Кто просматривает тему:

Форум Тема Автор Размер
Animal Planet Animal Planet. Тайная жизнь домашних питомцев / Secret life of pets [01-06] (2014) HDTVRip от GeneralFilm | P1 sergej644 1.6 GB
BBC BBC: Археология: Тайная история / Archaeology: A Secret History [серии 1-3 из 3] (Никола Шир / Nicola Seare, Энтони Барвелл / Anthony Barwell) [2013 г., Документальный, история, археология, SATRip] skorpionN 2.31 GB
BBC BBC: Магия грибов (Тайная жизнь грибов) / The Magic of Mushrooms (Russell Leven) [2014 г., Документальный, научно-познавательный, HDTVRip 720p] skorpionN 1.27 GB
BBC BBC: Мир природы. Тайная жизнь барсуков / Natural World. Badgers Secrets of the Sett [сезон 27 серия 7] (Тим Мартин / Tim Martin) [2008 г., Документальный, исследование, животные, природа, HDTVRip... skorpionN 1.15 GB
BBC BBC: Операция Стоунхендж. Тайна, скрытая под камнями / Operation Stonehenge: What Lies Beneath [серии 1-2 из 2] (Джереми Тернер / Jeremy Turner) [2014 г., Документально-постановочный, история,... skorpionN 3.27 GB
BBC BBC: Тайная жизнь мошкары / The Secret Life of Midges (Colin Murray) [2015 г., Документальный, научно-познавательный, HDTVRip 720p] skorpionN 1.26 GB
Da Vinci Learning Da Vinci Learning: Тайна Хоббита / The Hobbit Enigma (Simon Nasht, Annamaria Talas) [2008 г., Локументальный, научно-популярный, археология, антропология, SATRip] skorpionN 843 MB
National Geographic NG: Последняя тайна Геринга / Revealed: Goering's Last Secret (Линда Паркхерст / Linda Parkhurs) [2010 г., Документальный, биографический, история, HDTVRip 720p] skorpionN 1.8 GB
Показать сообщения:    

Текущее время: Сегодня 11:57

Часовой пояс: GMT



Вы не можете начинать темы
Вы не можете отвечать на сообщения
Вы не можете редактировать свои сообщения
Вы не можете удалять свои сообщения
Вы не можете голосовать в опросах
Вы не можете прикреплять файлы к сообщениям
Вы не можете скачивать файлы