Тайна в их глазах / Secret in Their Eyes (2015) WEBRip 1080p | Трейлер

 
Автор Сообщение

BOSS ®

Пол:

Стаж: 2 года 8 месяцев

Сообщений: 5869

Откуда: ODESSA



Награды: 20 (Подробнее)

Mega Releaser 1 (Количество: 1) Top Seeder 5 (Количество: 1) Top Seeder 3 (Количество: 1)
Торрент-статистика

Создавать темы 17-Июл-2015 10:48

[Цитировать]

Год выпуска: 2015
Производство: США
Жанр: триллер, детектив
Перевод: дублированный
Режиссер: Билли Рэй
Продюсеры: Мэтт Джексон, Марк Джонсон, Мэтт Беренсон
Актеры: Луис Салазар, Джулия Робертс, Николь Кидман, Дин Норрис, Чиветель Эджиофор, Линдон Смит, Майкл Келли, Джо Коул, Зои Грэм, Марк Фамиглетти
Описание фильма:
Отставной юридический советник пишет роман, надеясь разгадать тайну одного из своих последних неразрешенных дел об убийстве и разобраться в своей безответной любви к начальнику.
Дата мировой премьеры: 23 октября 2015
Дата российской премьеры: 23 октября 2015

Продолжительность: 00:02:35
Качество видео: WEBRip 1080p
Видеокодек: MPEG-4 AVC/H.264
Битрейт видео: 4124 Кбит/сек
Размер кадра: 1920x796
Аудиокодек: AAC
Битрейт аудио: 128 Кбит/сек

MediaInfo:

Общее
Полное имя : Secret-in-Their-Eyes.mp4
Формат : MPEG-4
Профиль формата : Base Media
Идентификатор кодека : isom
Размер файла : 78,8 Мбайт
Продолжительность : 2 м. 35 с.
Режим общего битрейта : Переменный
Общий поток : 4256 Кбит/сек
Дата кодирования : UTC 2015-07-16 10:54:03
Дата пометки : UTC 2015-07-16 10:54:03
Программа кодирования : Lavf51.12.1
Видео
Идентификатор : 1
Формат : AVC
Формат/Информация : Advanced Video Codec
Профиль формата : Baseline@L4
Параметр CABAC формата : Нет
Параметр ReFrames формата : 1 кадр
Параметр GOP формата : M=1, N=12
Идентификатор кодека : avc1
Идентификатор кодека/Информация : Advanced Video Coding
Продолжительность : 2 м. 35 с.
Битрейт : 4124 Кбит/сек
Ширина : 1920 пикселей
Высота : 796 пикселей
Соотношение сторон : 2,40:1
Режим частоты кадров : Постоянный
Частота кадров : 23,976 кадра/сек
Цветовое пространство : YUV
Субдискретизация насыщенности : 4:2:0
Битовая глубина : 8 бит
Тип развёртки : Прогрессивная
Бит/(Пиксели*Кадры) : 0.113
Размер потока : 76,3 Мбайт (97%)
Дата кодирования : UTC 2015-07-16 10:54:03
Дата пометки : UTC 2015-07-16 10:54:03
Аудио
Идентификатор : 2
Формат : AAC
Формат/Информация : Advanced Audio Codec
Профиль формата : LC
Идентификатор кодека : 40
Продолжительность : 2 м. 35 с.
Вид битрейта : Переменный
Битрейт : 128 Кбит/сек
Каналы : 2 канала
Расположение каналов : Front: L R
Частота : 48,0 КГц
Метод сжатия : С потерями
Размер потока : 2,37 Мбайт (3%)
Дата кодирования : UTC 2015-07-16 10:54:03
Дата пометки : UTC 2015-07-16 10:54:03
Скриншоты - -

Скриншоты

[Профиль] [ЛС]
Кто просматривает тему:

Форум Тема Автор Размер
BBC BBC: Тайная наука. Химическое и биологическое оружие / Inside Porton Down Britain's Secret Weapons Research Facility (Tim Usborne) [2016 г., Документальный, научно-популярный, HDTVRip-AVC 720p] skorpionN 1.43 GB
Боевики, детективы, триллеры Грегори Самак - Тайная книга (2016) FB2, EPUB достали все 1 MB
Зарубежные мультфильмы Елена и тайна Авалора / Elena and the Secret of Avalor (2016) WEB-DLRip | D BOSS 1.1 GB
Мультфильмы (48-60 fps) Тайная жизнь домашних животных / The Secret Life of Pets (2016) BDRip 1080p | 60 FPS | iTunes Russian Mafia 6.89 GB
3D Мультфильмы Тайная жизнь домашних животных / The Secret Life of Pets (2016) BDRip 1080p от Ash61 | 3D-Video | halfOU | iTunes Russian Mafia 7.97 GB
Зарубежные мультфильмы Тайная жизнь домашних животных / The Secret Life of Pets (2016) BDRip от GeneralFilm | iTunes Russian Mafia 1.41 GB
Зарубежные мультфильмы Тайная жизнь домашних животных / The Secret Life of Pets (2016) BDRip-AVC от R.G.Resident | iTunes Russian Mafia 2.31 GB
Трейлеры Тайная жизнь домашних животных / The Secret Life of Pets (2016) DCPRip 1080p | Трейлер | D BOSS 350 MB
Показать сообщения:    

Текущее время: Сегодня 19:25

Часовой пояс: GMT



Вы не можете начинать темы
Вы не можете отвечать на сообщения
Вы не можете редактировать свои сообщения
Вы не можете удалять свои сообщения
Вы не можете голосовать в опросах
Вы не можете прикреплять файлы к сообщениям
Вы не можете скачивать файлы