Тайна волшебной Тыквы / The Secret of the Magic Gourd / Bao hu lu de mi mi (Джон Чу, Фрэнки Чунг / John Chu, Frankie Chung) [2007, США, Гонконг, Китай, Приключения, детский, фэнтези, HDTVRip] Dub

 
Автор Сообщение

painkiller ®

Стаж: 2 года 10 месяцев

Сообщений: 582



Награды: Нет

Торрент-статистика

Создавать темы 27-Авг-2014 01:07

[Цитировать]

Тайна волшебной Тыквы / The Secret of the Magic Gourd / Bao hu lu de mi mi
Страна: США, Гонконг, Китай
Киностудия: Walt Disney Studios
Жанр: Приключения, детский, фэнтези
Год выпуска: 2007
Продолжительность: 01:19:47
Перевод: Профессиональный (дублированный)
Cубтитры: нет
Режиссер: Джон Чу, Фрэнки Чунг / John Chu, Frankie Chung
В ролях: Жу Кьилонг, Пейсы Чен, Чинг Ван Лау, Гиги Люн, Чи Йинг Чан
Описание: Ван Бао, великий фантазёр и неуч, однажды получает возможность облегчить свою участь незадачливого ученика с помощью магического существа, о котором он слышал только из бабушкиных сказок. Бао Ху Ло, Волшебная Тыква, это совершенное создание, исполняющее все ваши желания, если вам посчастливилось стать его Хозяином. Но одно дело слушать как всё просто в сказках, и совсем другое загадывать желания самому. Оказывается, недостаточно знать, чего ты хочешь, нужно ещё и суметь правильно пожелать, в противном случае, ваши желания могут обратиться против вас…
Сэмпл: https://yadi.sk/i/ICOUQFULaQBiK
Доп. информация: За предоставленный рип благодарим Ledy_X
"Спасибы" просьба ПИСАТЬ в теме, тем самым вы продлеваете жизнь раздаче.
Качество видео: HDTVRip [Исходник 1080i]
Формат видео: AVI
Видео: 720x304 (2.37:1), 25 fps, XviD build 50 ~2299 kbps avg, 0.42 bit/pixel
Аудио: 48 kHz, AC3 Dolby Digital, 2/0 (L,R) ch, ~192 kbps

MediaInfo

Тайна волшебной тыквы - The Secret of the Magic Gourd [Rip by Ledy_X].avi
Format : AVI
Format/Info : Audio Video Interleave
File size : 1.39 GiB
Duration : 1h 19mn
Overall bit rate : 2 501 Kbps
Movie name : Тайна волшебной тыквы - The Secret of the Magic Gourd [Rip by Ledy_X]
Director : Rip by Ledy_X
Writing application : VirtualDubMod 1.5.10.2 (build 2540/release)
Copyright : Edich2
Comment : RuTracker.org
Video
ID : 0
Format : MPEG-4 Visual
Format profile : Advanced Simple@L5
Format settings, BVOP : 2
Format settings, QPel : No
Format settings, GMC : No warppoints
Format settings, Matrix : Custom
Codec ID : XVID
Codec ID/Hint : XviD
Duration : 1h 19mn
Bit rate : 2 300 Kbps
Width : 720 pixels
Height : 304 pixels
Display aspect ratio : 2.35:1
Frame rate : 25.000 fps
Color space : YUV
Chroma subsampling : 4:2:0
Bit depth : 8 bits
Scan type : Progressive
Compression mode : Lossy
Bits/(Pixel*Frame) : 0.420
Stream size : 1.28 GiB (92%)
Writing library : XviD 1.2.1 (UTC 2008-12-04)
Audio
ID : 1
Format : AC-3
Format/Info : Audio Coding 3
Mode extension : CM (complete main)
Format settings, Endianness : Big
Codec ID : 2000
Duration : 1h 19mn
Bit rate mode : Constant
Bit rate : 192 Kbps
Channel(s) : 2 channels
Channel positions : Front: L R
Sampling rate : 48.0 KHz
Bit depth : 16 bits
Compression mode : Lossy
Delay relative to video : 20ms
Stream size : 110 MiB (8%)
Alignment : Split accross interleaves
Interleave, duration : 40 ms (1.00 video frame)
Interleave, preload duration : 500 ms

Скриншоты


[Профиль] [ЛС]

Создавать темы 06-Авг-2015 23:06 (спустя 11 месяцев 10 дней)

Топик был перенесен из форума Фильмы до 2014 года в форум Фильмы до 2012 года
sergej644
 
Показать сообщения:    

Текущее время: Сегодня 12:35

Часовой пояс: GMT



Вы не можете начинать темы
Вы не можете отвечать на сообщения
Вы не можете редактировать свои сообщения
Вы не можете удалять свои сообщения
Вы не можете голосовать в опросах
Вы не можете прикреплять файлы к сообщениям
Вы не можете скачивать файлы