Тайная жизнь хищников / National Geographic: Secret Life of Predators [2013, Документальный, BDRip 720p]

 
Автор Сообщение

TorrentFilm ®

Пол:

Стаж: 2 года

Сообщений: 7741



Награды: Нет

Торрент-статистика

Создавать темы 06-Янв-2015 00:00

[Цитировать]

Тайная жизнь хищников / Secret Life of Predators Год выпуска: 2013
Страна: США
Студия: National Geographic
Жанр: документальный
Продолжительность: 4x ~00:44:00
Перевод: Профессиональный (дублированный)
Субтитры: нет
Описание: Это сенсационное погружение в среду самых страшных хищников планеты раскрывается через невероятную съемку и самые современные технологии кинопроизводства ... некоторые приемы съемки были изобретены специально для этого новаторского телепроекта.
1. Wet / В воде
В водах нашей планеты хищники всех форм и размеров встречают множество преград на пути к успеху и выживанию.
2. Stealth / В лесах
Лесные хищники должны уметь жить в мире, где пища или соперники могут находиться сзади, внизу или вверху.
3. Naked / На виду
Хищники, обитающие на открытых пространствах, должны уметь прятаться будучи у всех на виду или же, как полосатый мангуст, брать числом.
4. Exposed / На границе
Обитающие на границах гор, лесов, рек и океанов природные охотники должны иметь особые навыки, чтобы выжить.
Доп. информация: Раздача от DeTorquemada
Тип релиза: BDRip 720p
Контейнер: MKV
Видео: MPEG-4 AVC, 1280x720 (16:9), 25.000 fps, ~7108-8349 Kbps
Аудио: Russian AC3, 5.1 ch, 48KHz, 640 Kbps
Аудио: English DTS 5.1 ch, 48 kHz, 16-bit, 1509 kbps
Навигация по главам: есть
Другие фильмы National Geographic в HD

MediaInfo

General
Unique ID : 232761251114421891835742906109496612157 (0xAF1C2FB4126C9894B1183AA44D0F553D)
Complete name : F:\Secret.Life.of.Predators.2014.720p.BluRay.Rus.Eng.HDCLUB\Secret.Life.of.Predators.Episode.1.Wet.2014.720p.BluRay.Rus.Eng.HDCLUB.mkv
Format : Matroska
Format version : Version 4 / Version 2
File size : 3.12 GiB
Duration : 44mn 2s
Overall bit rate : 10.1 Mbps
Movie name : Create by DeTorquemada for HDCLUB
Encoded date : UTC 2014-09-14 10:46:55
Writing application : mkvmerge v7.1.0 ('Good Love') 64bit built on Jul 27 2014 13:06:55
Writing library : libebml v1.3.0 + libmatroska v1.4.1
Video
ID : 1
Format : AVC
Format/Info : Advanced Video Codec
Format profile : High@L4.1
Format settings, CABAC : Yes
Format settings, ReFrames : 7 frames
Codec ID : V_MPEG4/ISO/AVC
Duration : 44mn 2s
Bit rate : 7 789 Kbps
Width : 1 280 pixels
Height : 720 pixels
Display aspect ratio : 16:9
Frame rate mode : Constant
Frame rate : 25.000 fps
Color space : YUV
Chroma subsampling : 4:2:0
Bit depth : 8 bits
Scan type : Progressive
Bits/(Pixel*Frame) : 0.338
Stream size : 2.40 GiB (77%)
Title : Тайная жизнь хищников. Эпизод 1: В воде / Secret Life of Predators. Episode 1: Wet (2014) - Release for HDCLUB
Writing library : x264 core 138 r2358 9e941d1
Encoding settings : cabac=1 / ref=7 / deblock=1:-3:-3 / analyse=0x3:0x113 / me=umh / subme=10 / psy=1 / psy_rd=1.00:0.00 / mixed_ref=1 / me_range=48 / chroma_me=1 / trellis=2 / 8x8dct=1 / cqm=0 / deadzone=21,11 / fast_pskip=1 / chroma_qp_offset=-2 / threads=6 / lookahead_threads=1 / sliced_threads=0 / nr=0 / decimate=1 / interlaced=0 / bluray_compat=0 / constrained_intra=0 / bframes=3 / b_pyramid=2 / b_adapt=2 / b_bias=0 / direct=1 / weightb=1 / open_gop=0 / weightp=2 / keyint=250 / keyint_min=25 / scenecut=40 / intra_refresh=0 / rc_lookahead=65 / rc=crf / mbtree=0 / crf=17.0 / qcomp=0.60 / qpmin=0 / qpmax=69 / qpstep=4 / vbv_maxrate=50000 / vbv_bufsize=62500 / crf_max=0.0 / nal_hrd=none / ip_ratio=1.40 / pb_ratio=1.30 / aq=1:0.80
Language : English
Default : Yes
Forced : No
Matrix coefficients : BT.709
Audio #1
ID : 2
Format : AC-3
Format/Info : Audio Coding 3
Mode extension : CM (complete main)
Format settings, Endianness : Big
Codec ID : A_AC3
Duration : 44mn 2s
Bit rate mode : Constant
Bit rate : 640 Kbps
Channel(s) : 6 channels
Channel positions : Front: L C R, Side: L R, LFE
Sampling rate : 48.0 KHz
Bit depth : 16 bits
Compression mode : Lossy
Stream size : 202 MiB (6%)
Title : 48KHz/16-bit, AC3, 3/2 (L,C,R,l,r) + LFE ch, 640 kbps - Дубляж
Language : Russian
Default : Yes
Forced : No
Audio #2
ID : 3
Format : DTS
Format/Info : Digital Theater Systems
Mode : 16
Format settings, Endianness : Big
Codec ID : A_DTS
Duration : 44mn 2s
Bit rate mode : Constant
Bit rate : 1 509 Kbps
Channel(s) : 6 channels
Channel positions : Front: L C R, Side: L R, LFE
Sampling rate : 48.0 KHz
Bit depth : 16 bits
Compression mode : Lossy
Stream size : 475 MiB (15%)
Title : 48KHz/16-bit, DTS, 3/2 (L,C,R,l,r) + LFE ch, 1509 kbps
Language : English
Default : No
Forced : No
Menu
00:00:00.000 : en:
00:03:30.840 : en:
00:06:47.560 : en:
00:11:11.640 : en:
00:15:09.479 : en:
00:18:51.920 : en:
00:22:57.159 : en:
00:26:23.399 : en:
00:30:40.800 : en:
00:34:43.920 : en:
00:38:20.640 : en:
00:42:04.560 : en:

Скриншоты

[Профиль] [ЛС]
Кто просматривает тему:

Форум Тема Автор Размер
Animal Planet Animal Planet. Тайная жизнь домашних питомцев / Secret life of pets [01-06] (2014) HDTVRip от GeneralFilm | P1 sergej644 1.6 GB
BBC BBC: Археология: Тайная история / Archaeology: A Secret History [серии 1-3 из 3] (Никола Шир / Nicola Seare, Энтони Барвелл / Anthony Barwell) [2013 г., Документальный, история, археология, SATRip] skorpionN 2.31 GB
BBC BBC: Магия грибов (Тайная жизнь грибов) / The Magic of Mushrooms (Russell Leven) [2014 г., Документальный, научно-познавательный, HDTVRip 720p] skorpionN 1.27 GB
BBC BBC: Мир природы. Тайная жизнь барсуков / Natural World. Badgers Secrets of the Sett [сезон 27 серия 7] (Тим Мартин / Tim Martin) [2008 г., Документальный, исследование, животные, природа, HDTVRip... skorpionN 1.15 GB
BBC BBC: Операция Стоунхендж. Тайна, скрытая под камнями / Operation Stonehenge: What Lies Beneath [серии 1-2 из 2] (Джереми Тернер / Jeremy Turner) [2014 г., Документально-постановочный, история,... skorpionN 3.27 GB
BBC BBC: Тайная жизнь близнецов / The Secret Life of Twins (Luke Wiles) [2015 г., Документальный, научно-популярный, SATRip] skorpionN 584 MB
BBC BBC: Тайная жизнь мошкары / The Secret Life of Midges (Colin Murray) [2015 г., Документальный, научно-познавательный, HDTVRip 720p] skorpionN 1.26 GB
Da Vinci Learning Da Vinci Learning: Тайна Хоббита / The Hobbit Enigma (Simon Nasht, Annamaria Talas) [2008 г., Локументальный, научно-популярный, археология, антропология, SATRip] skorpionN 843 MB
Показать сообщения:    

Текущее время: Сегодня 10:05

Часовой пояс: GMT



Вы не можете начинать темы
Вы не можете отвечать на сообщения
Вы не можете редактировать свои сообщения
Вы не можете удалять свои сообщения
Вы не можете голосовать в опросах
Вы не можете прикреплять файлы к сообщениям
Вы не можете скачивать файлы