Таймлесс 2: Сапфировая книга / Saphirblau (Феликс Фуксштайнер / Felix Fuchssteiner, Катарина Шёде / Katharina Schode) [2014, Германия, фантастика, фэнтези, драма, мелодрама, детектив, WEB-DLRip] MVO

 
Автор Сообщение

sergej644 ®

Пол:

Стаж: 4 года 11 месяцев

Сообщений: 6042

Откуда: Soviet Union



Награды: Нет

Торрент-статистика

Создавать темы 27-Окт-2014 08:05

[Цитировать]

--Таймлесс 2: Сапфировая книга / Saphirblau
Страна: Германия
Жанр: фантастика, фэнтези, драма, мелодрама, детектив
Год выпуска: 2014
Продолжительность: 01:56:06
Перевод: Профессиональный (многоголосый закадровый) Официальный
Cубтитры: нет
Оригинальная аудиодорожка: нет
Режиссер: Феликс Фуксштайнер, Катарина Шёде / Felix Fuchssteiner, Katharina Schode
В ролях: Мария Эрих, Яннис Нивёнер, Петер Симонишек, Йозефина Пройсс, Флориан Бартоломай, Руфус Бек, Лаура Берлин, Сандра Боргманн, Юстина дель Корте, Вероника Феррес
Описание: Приключения юной Гвендолин Шеферд продолжаются. Она начинает все больше узнавать о тайнах мира путешественников во времени. Ей предстоит разгадать больше загадок и научиться быть светской леди для приемов в 18 веке. Гвендолин узнает больше о своей семье, в первую очередь о ее дедушке Лукасе. Также Гвен подозревает, что Гидеон скрывает что-то от нее, возможно какую-то сокровенную страшную тайну… Но с появлением нового, слегка надоедливого друга Ксемериуса, девушке становится легче преодолевать все препятствия на пути.
Доп. информация:

Сэмпл: http://multi-up.com/1008903
Качество видео: WEB-DLRip
Формат видео: AVI
Видео: 656x272 (2.41:1), 24.000 fps, XviD build 50 ~705 kbps avg, 0.17 bit/pixel
Аудио: 48 kHz, AC3 Dolby Digital, 2/0 (L,R) ch, ~128 kbps

MediaInfo

General
Complete name : C:\Users\Вика\Desktop\Saphirblau.WEB-DLRip.2014.avi
Format : AVI
Format/Info : Audio Video Interleave
File size : 700 MiB
Duration : 1h 56mn
Overall bit rate : 843 Kbps
Writing application : VirtualDubMod 1.5.10.3 | www.virtualdub-fr.org || (build 2550/release)
Writing library : VirtualDubMod build 2550/release
Video
ID : 0
Format : MPEG-4 Visual
Format profile : Advanced Simple@L5
Format settings, BVOP : Yes
Format settings, QPel : No
Format settings, GMC : No warppoints
Format settings, Matrix : Default (MPEG)
Codec ID : XVID
Codec ID/Hint : XviD
Duration : 1h 56mn
Bit rate : 706 Kbps
Width : 656 pixels
Height : 272 pixels
Display aspect ratio : 2.40:1
Frame rate : 24.000 fps
Color space : YUV
Chroma subsampling : 4:2:0
Bit depth : 8 bits
Scan type : Progressive
Compression mode : Lossy
Bits/(Pixel*Frame) : 0.165
Stream size : 586 MiB (84%)
Writing library : XviD 1.2.1 (UTC 2008-12-04)
Audio
ID : 1
Format : AC-3
Format/Info : Audio Coding 3
Mode extension : CM (complete main)
Format settings, Endianness : Big
Codec ID : 2000
Duration : 1h 56mn
Bit rate mode : Constant
Bit rate : 128 Kbps
Channel count : 2 channels
Channel positions : Front: L R
Sampling rate : 48.0 KHz
Bit depth : 16 bits
Compression mode : Lossy
Stream size : 106 MiB (15%)
Alignment : Split accross interleaves
Interleave, duration : 42 ms (1.00 video frame)
Interleave, preload duration : 500 ms

Скриншоты

--
[Профиль] [ЛС]
Показать сообщения:    

Текущее время: Сегодня 20:05

Часовой пояс: GMT



Вы не можете начинать темы
Вы не можете отвечать на сообщения
Вы не можете редактировать свои сообщения
Вы не можете удалять свои сообщения
Вы не можете голосовать в опросах
Вы не можете прикреплять файлы к сообщениям
Вы не можете скачивать файлы